<?xml version="1.0" standalone="no"?>
<!DOCTYPE svg PUBLIC "-//W3C//DTD SVG 1.1//EN" "http://www.w3.org/Graphics/SVG/1.1/DTD/svg11.dtd" >
<svg xmlns="http://www.w3.org/2000/svg">
<metadata></metadata>
<defs>
<font id="noto_emojiregular" horiz-adv-x="2600" >
<font-face units-per-em="2048" ascent="1638" descent="-410" />
<missing-glyph horiz-adv-x="500" />
<glyph />
<glyph unicode=" " />
<glyph unicode="#" d="M1740 953l-86 -449h383v-188h-420l-113 -586h-201l115 586h-399l-112 -586h-197l107 586h-354v188h391l89 449h-376v188h410l112 591h202l-113 -591h402l115 591h197l-115 -591h359v-188h-396zM1055 504h399l87 449h-398z" />
<glyph unicode="0" d="M822 -32.5q-162 264.5 -162 766.5q0 524 157 777t480 253q318 0 480.5 -265.5t162.5 -764.5q0 -526 -159 -778.5t-484 -252.5q-313 0 -475 264.5zM1594.5 109q93.5 194 93.5 625q0 432 -94.5 624.5t-296.5 192.5q-200 0 -291.5 -191t-91.5 -626q0 -433 91 -626t292 -193 q204 0 297.5 194z" />
<glyph unicode="1" d="M1665 -269h-242v1250q0 63 1 130.5t3 129.5l4 127q2 61 3 108q-23 -25 -40.5 -42.5t-35.5 -33.5l-89 -79l-203 -166l-132 169l525 409h206v-2002z" />
<glyph unicode="2" d="M1925 -273h-1250v213l480 522q83 89 194 215t177.5 255.5t66.5 280.5q0 156 -87 245t-236 89q-130 0 -235 -52.5t-199 -134.5l-140 163q137 122 282.5 178.5t294.5 56.5q264 0 418 -145t154 -390q0 -134 -48 -256t-132.5 -242t-298.5 -350l-385 -410v-11h944v-227z" />
<glyph unicode="3" d="M1438 785v-8q243 -30 369 -154t126 -323q0 -278 -190 -437.5t-546 -159.5q-149 0 -281 23.5t-249 84.5v233q119 -63 258 -97t267 -34q236 0 360.5 98t124.5 297q0 174 -131 264t-391 90h-182v207h182q217 0 338.5 103.5t121.5 275.5q0 141 -94 222t-248 81 q-148 0 -259.5 -46.5t-212.5 -119.5l-126 172q120 97 275 151t323 54q281 0 439.5 -135t158.5 -362q0 -190 -113 -317t-320 -163z" />
<glyph unicode="4" d="M2029 179h-292v-449h-241v449h-925v218l908 1347h258v-1337h292v-228zM1496 407v488q0 87 3.5 230t9.5 245l5 116h-13q-18 -55 -55.5 -128.5t-67.5 -117.5l-563 -833h681z" />
<glyph unicode="5" d="M1714.5 -119q-189.5 -174 -532.5 -174q-138 0 -268 27t-219 81v236q84 -60 228.5 -96t265.5 -36q228 0 343.5 110.5t115.5 319.5q0 196 -120.5 299.5t-350.5 103.5q-60 0 -143.5 -10t-173.5 -25l-123 78l75 942h946v-227h-729l-54 -574q53 10 125.5 18.5t161.5 8.5 q288 0 465 -156.5t177 -429.5q0 -322 -189.5 -496z" />
<glyph unicode="6" d="M1676 1754.5q68 -7.5 104 -18.5v-212q-48 16 -108.5 24.5t-119.5 8.5q-198 0 -333 -80.5t-208.5 -249.5t-87.5 -476h17q66 119 174 176t246 57q267 0 418.5 -162t151.5 -446q0 -312 -164.5 -492.5t-443.5 -180.5q-298 0 -475.5 232t-177.5 652q0 599 219.5 887t655.5 288 q64 0 132 -7.5zM1594 682q-95 106 -266 106q-175 0 -292.5 -112t-117.5 -252q0 -207 110.5 -359t290.5 -152q172 0 271 117t99 346q0 200 -95 306z" />
<glyph unicode="7" d="M918 -269l771 1775h-1033v227h1288v-198l-760 -1804h-266z" />
<glyph unicode="8" d="M1780.5 1006.5q-83.5 -119.5 -275.5 -216.5q221 -116 322.5 -248t101.5 -290q0 -246 -171.5 -397.5t-457.5 -151.5q-298 0 -463.5 142.5t-165.5 395.5q0 170 95 307t293 231q-178 114 -250 238t-72 268q0 219 159 349t404 130q250 0 407 -129t157 -353 q0 -156 -83.5 -275.5zM1582 -2.5q103 88.5 103 251.5q0 126 -89 222t-291 193l-41 19q-172 -82 -260 -188t-88 -257q0 -157 97 -243t282 -86q184 0 287 88.5zM1013 1120.5q32 -63.5 91 -113t199 -115.5q180 83 249 174t69 207q0 137 -86 210t-238 73q-145 0 -230.5 -72.5 t-85.5 -210.5q0 -89 32 -152.5z" />
<glyph unicode="9" d="M922.5 -289q-70.5 8 -102.5 17v213q48 -17 108.5 -25.5t119.5 -8.5q297 0 453.5 184t175.5 622h-18q-61 -114 -167.5 -173.5t-253.5 -59.5q-266 0 -418 163t-152 445q0 306 163 490t447 184q302 0 478 -235t176 -649q0 -593 -218 -884t-658 -291q-63 0 -133.5 8z M1005 782.5q94 -106.5 268 -106.5q173 0 291 111.5t118 252.5q0 209 -110 360t-291 151q-174 0 -272 -118.5t-98 -344.5q0 -199 94 -305.5z" />
<glyph unicode="&#xa0;" />
<glyph unicode="&#xa9;" d="M2201.5 220q-139.5 -241 -380.5 -380.5t-521 -139.5q-285 0 -529 144.5t-378.5 384.5t-134.5 512q0 278 140 520t382 382t520 140q272 0 512 -134.5t384.5 -378.5t144.5 -529q0 -280 -139.5 -521zM2115 1211.5q-126 217.5 -344 344.5t-471 127q-252 0 -470.5 -126.5 t-345 -344.5t-126.5 -471t127 -471t345 -344t470 -126q253 0 470.5 126.5t344 344t126.5 470.5t-126 470.5zM1799 274q0 -2 1 -6q0 -16 -78.5 -66.5t-173 -77.5t-204.5 -27q-288 0 -475.5 183t-187.5 461q0 279 187.5 461.5t475.5 182.5q134 0 242.5 -33t191.5 -99 q6 -5 6 -11q0 -4 -2 -7l-148 -270q-3 -6 -9 -6h-6q-6 0 -24.5 15.5t-89.5 43t-160 27.5q-136 0 -225.5 -84.5t-89.5 -219.5q0 -134 89 -219t226 -85q75 0 158.5 31t112.5 53.5t39 22.5q6 0 10 -7z" />
<glyph unicode="&#xae;" d="M2201 221q-140 -242 -381.5 -381.5t-519.5 -139.5q-281 0 -525 143t-380.5 384.5t-136.5 515.5t136.5 515.5t380.5 384.5t525 143q278 0 519.5 -139.5t381.5 -381.5t140 -522t-140 -522zM2114.5 1213.5q-126.5 218.5 -345 345.5t-469.5 127q-249 0 -468.5 -126.5 t-346.5 -345t-127 -471.5t127 -471.5t346.5 -345t468.5 -126.5q251 0 469.5 127t345 345.5t126.5 470.5t-126.5 470.5zM1848 170q6 -6 6 -16q0 -11 -8.5 -19.5t-19.5 -8.5h-259q-15 0 -23 11l-297 396h-103v-379q0 -11 -7.5 -18.5t-18.5 -7.5h-259q-11 0 -18.5 7.5 t-7.5 18.5v1193q0 11 7.5 19.5t18.5 8.5h529q175 0 300.5 -124.5t125.5 -296.5q0 -126 -71.5 -232.5t-191.5 -156.5zM1362 781q65 0 112.5 51t47.5 122q0 76 -46.5 125t-120.5 49h-206q-6 0 -6 -7v-334q0 -4 3 -5t12 -1h204z" />
<glyph unicode="&#x203c;" d="M819 486q-16 0 -16 14l-70 992q0 5 4 10t14 5h390q8 0 13 -3.5t5 -11.5l-68 -992q-4 -14 -18 -14h-254zM1095.5 112.5q55.5 -50.5 55.5 -147.5q0 -96 -55 -147.5t-148 -51.5q-98 0 -152.5 52t-54.5 147q0 100 54.5 149t152.5 49q92 0 147.5 -50.5zM1526 486q-6 0 -11 4 t-5 10l-70 992q0 5 4 10t14 5h390q8 0 13 -3.5t5 -11.5l-69 -992q-2 -14 -17 -14h-254zM1802.5 112.5q55.5 -50.5 55.5 -147.5q0 -96 -55 -147.5t-148 -51.5q-98 0 -152.5 52t-54.5 147q0 100 54.5 149t152.5 49q92 0 147.5 -50.5z" />
<glyph unicode="&#x2049;" d="M1368 362v85q0 120 52.5 205.5t162 168t141.5 136t32 129.5q0 70 -47.5 111t-134.5 41q-81 0 -174.5 -33t-191.5 -83l-119 258q140 76 262.5 111t226.5 35q240 0 377.5 -114t137.5 -311q0 -123 -51 -214t-161 -179.5t-157 -135.5t-47 -141v-69h-309zM1685 109.5 q55 -50.5 55 -147.5q0 -96 -55.5 -147.5t-148.5 -51.5q-95 0 -150.5 50.5t-55.5 148.5q0 101 53 149.5t153 48.5q94 0 149 -50.5zM593 484q-8 0 -13 3.5t-5 9.5l-68 992q0 6 4 11.5t12 5.5h392q8 0 13 -5.5t5 -11.5l-70 -992q0 -6 -5 -9.5t-13 -3.5h-252zM871 108.5 q54 -51.5 54 -146.5t-56.5 -147t-148.5 -52q-95 0 -150 51.5t-55 147.5q0 99 52 148.5t153 49.5q97 0 151 -51.5z" />
<glyph unicode="&#x20e3;" d="M2222 1780q46 0 79 -33t33 -79v-1845q0 -45 -33.5 -78t-78.5 -33h-1845q-45 0 -78 33t-33 78v1845q0 45 33 78.5t78 33.5h1845zM563 16q0 -7 7 -7h1459q8 0 8 7v1459q0 7 -8 7h-1459q-7 0 -7 -7v-1459zM2232 1700l-10 1h-1845q-14 0 -23.5 -9.5t-9.5 -23.5v-1845 q0 -8 2.5 -13.5t6.5 -10.5l154 155q-11 13 -18 28.5t-7 33.5v1459q0 36 26 62t62 26h1459q29 0 51 -17z" />
<glyph unicode="&#x2122;" d="M1177 1636q11 0 18 -7t7 -18v-219q0 -11 -7 -18.5t-18 -7.5h-352v-985q0 -11 -8 -18t-18 -7h-225q-11 0 -18 7t-7 18v985h-352q-10 0 -18 7.5t-8 18.5v219q0 11 8 18t18 7h980zM2428 389q0 -11 -7 -20t-19 -9h-215q-10 0 -17.5 7t-8.5 18l-42 508l-163 -514 q-6 -19 -22 -19h-161q-8 0 -15.5 4.5t-10.5 14.5l-162 514l-42 -508q0 -11 -8 -18t-18 -7h-214q-11 0 -18.5 7.5t-7.5 21.5l86 1217q2 9 9 16.5t17 7.5h229q21 0 26 -19l208 -808l209 808q5 19 26 19h228q10 0 17.5 -5t8.5 -19z" />
<glyph unicode="&#x2139;" d="M2262 216.5q-149 -257.5 -406.5 -406.5t-555.5 -149q-299 0 -556.5 149t-406.5 406.5t-149 556.5q0 298 149 555t406 406.5t557 149.5q298 0 555.5 -149t406.5 -406.5t149 -555.5q0 -299 -149 -556.5zM2121.5 1250.5q-129.5 221.5 -349.5 347.5t-472 126 q-254 0 -475.5 -128t-349 -348.5t-127.5 -474.5t127.5 -475.5t349 -349t475.5 -127.5q252 0 472.5 126t349.5 348.5t129 477.5q0 256 -129.5 477.5zM1186 1036h228v-831h-228v831zM1391.5 1168q-31.5 -29 -91.5 -29t-91.5 28t-31.5 83q0 56 30.5 83.5t92.5 27.5 q59 0 91 -26.5t32 -84.5q0 -53 -31.5 -82z" />
<glyph unicode="&#x2194;" d="M1693 974v402l877 -643l-877 -644v402h-787v-402l-877 644l877 643v-402h787z" />
<glyph unicode="&#x2195;" d="M1541 371h402l-643 -877l-644 877h402v787h-402l644 877l643 -877h-402v-787z" />
<glyph unicode="&#x2196;" d="M615 1444l1074 -166l-284 -284l580 -578l-340 -340l-578 580l-286 -288z" />
<glyph unicode="&#x2197;" d="M1984 1446l-166 -1074l-284 284l-578 -580l-340 340l580 578l-288 286z" />
<glyph unicode="&#x2198;" d="M1985 76l-1074 166l284 284l-580 578l340 340l578 -580l286 288z" />
<glyph unicode="&#x2199;" d="M616 75l166 1074l284 -284l578 580l340 -340l-580 -578l288 -286z" />
<glyph unicode="&#x21a9;" d="M1214 350q435 0 617 103t182 362q0 258 -182.5 361t-616.5 103h-787v330h787q583 0 856 -196.5t273 -597.5q0 -402 -275 -598.5t-854 -196.5h-349v-279l-609 445l609 447v-283h349z" />
<glyph unicode="&#x21aa;" d="M1734 350v283l609 -447l-609 -445v279h-349q-579 0 -854 196.5t-275 598.5q0 401 273 597.5t856 196.5h787v-330h-787q-434 0 -616.5 -103t-182.5 -361q0 -259 182 -362t617 -103h349z" />
<glyph unicode="&#x231a;" d="M2177 907v-302h-125q-29 -161 -120.5 -300t-225.5 -229v-353h-924v353q-165 111 -262.5 292t-97.5 388q0 203 94.5 382t265.5 296v355h924v-353q137 -94 227 -232.5t119 -296.5h125zM881 1402.5q-172 -96.5 -276 -270t-104 -376.5q0 -196 98 -367.5t270 -273.5t375 -102 q198 0 372 101t272.5 273t98.5 369q0 199 -101 372t-273.5 272t-368.5 99q-191 0 -363 -96.5zM1797 1142l61 -105l-488 -280q0 -53 -37.5 -90t-88.5 -37q-49 0 -87.5 36.5t-38.5 92.5l-286 166l60 104l288 -166q14 8 30.5 13t33.5 5q19 0 35.5 -5t30.5 -13zM1279 787.5 q-13 15.5 -35 15.5q-20 0 -34 -15t-14 -32q0 -20 14 -34t34 -14t34 14t14 34q0 16 -13 31.5zM1920 789.5q13 -13.5 13 -33.5t-13 -34t-33 -14q-19 0 -33.5 14t-14.5 34q0 19 14.5 33t33.5 14q20 0 33 -13.5zM1532.5 1345q14.5 14 33.5 14q20 0 33.5 -14.5t13.5 -32.5 q0 -20 -14 -34t-33 -14q-17 0 -32.5 13t-15.5 34q0 20 14.5 34zM889 1278q-14 14 -14 34q0 18 13.5 32.5t33.5 14.5q19 0 33.5 -13t14.5 -35q0 -19 -14 -33t-34 -14q-19 0 -33 14zM1210 1431.5q14 13.5 34 13.5t34 -13.5t14 -34.5q0 -20 -14 -33t-34 -13t-34 13t-14 33 q0 21 14 34.5zM719.5 1042q-14.5 -13 -31.5 -13q-22 0 -35 15.5t-13 32.5q0 21 15.5 34.5t32.5 13.5t31.5 -14t14.5 -34q0 -22 -14.5 -35zM635 722q-14 -14 -34 -14t-33 14t-13 34t13 33.5t33 13.5t34 -13.5t14 -33.5t-14 -34zM719.5 469q14.5 -13 14.5 -35q0 -17 -12 -32.5 t-34 -15.5q-19 0 -33.5 13t-14.5 35q0 19 13.5 33.5t34.5 14.5q17 0 31.5 -13zM956 166q-14 -14 -33 -14q-20 0 -34 14t-14 32q0 20 14 34t33 14q17 0 32.5 -13t15.5 -33t-14 -34zM1278 79.5q-14 -13.5 -34 -13.5t-34 13.5t-14 33.5t14 33.5t34 13.5t34 -13.5t14 -33.5 t-14 -33.5zM1599 232q14 -14 14 -34q0 -18 -14 -32t-34 -14q-18 0 -32.5 12.5t-14.5 33.5q0 19 14 33.5t34 14.5q19 0 33 -14zM1832.5 399q-15.5 -13 -32.5 -13q-22 0 -35 15.5t-13 32.5q0 22 15.5 35t32.5 13q19 0 33.5 -14t14.5 -34q0 -22 -15.5 -35z" />
<glyph unicode="&#x231b;" d="M1995 -51q42 -9 69.5 -42.5t27.5 -78.5q0 -52 -36.5 -88t-88.5 -36h-1335q-52 0 -88.5 37t-36.5 87q0 44 27 77t69 44q6 284 95.5 452t241 245.5t165.5 104.5t14 47q0 69 -107.5 115t-200 130.5t-149 237.5t-59.5 379q-42 11 -69 44t-27 77q0 51 37.5 87.5t87.5 36.5 h1335q50 0 87.5 -35.5t37.5 -88.5q0 -45 -27.5 -78.5t-69.5 -42.5q-6 -293 -95.5 -462.5t-244.5 -249t-166 -107.5t-11 -43q0 -69 105.5 -114t199 -129t150 -233.5t62.5 -372.5zM1036 607q-122 -64 -166 -106t-83 -100.5t-70.5 -171t-35.5 -277.5h1234q-6 268 -89.5 420.5 t-255 228.5t-171.5 197q0 114 144 182.5t216.5 149.5t112.5 207.5t45 314.5h-1236q3 -174 40 -302.5t109.5 -214t219.5 -154.5t147 -183q0 -51 -28 -93t-97 -78zM1521 541q124 -63 173.5 -117t88 -147.5t51.5 -254.5h-1072q14 191 75.5 307t172.5 177l66 35h445z" />
<glyph unicode="&#x23e9;" d="M236 1365l1012 -585v585l1115 -645l-1115 -644v584l-1012 -584v1289z" />
<glyph unicode="&#x23ea;" d="M2363 76l-1012 584v-584l-1115 644l1115 645v-585l1012 585v-1289z" />
<glyph unicode="&#x23eb;" d="M655 -343l585 1012h-585l645 1115l644 -1115h-584l584 -1012h-1289z" />
<glyph unicode="&#x23ec;" d="M1944 1784l-584 -1012h584l-644 -1115l-645 1115h585l-585 1012h1289z" />
<glyph unicode="&#x23f0;" d="M1355 1533q221 -13 411.5 -131.5t303 -318t112.5 -430.5q0 -143 -42.5 -271.5t-118.5 -237.5l53 -259q2 -5 2 -12t1 -25q0 -59 -32.5 -93t-96.5 -34l-659 5l-657 -5q-64 0 -97.5 33.5t-33.5 93.5q0 16 1.5 23t3.5 14l58 281q-70 106 -108 228.5t-38 258.5 q0 228 110.5 426.5t301.5 319t414 134.5v125h-75v125h263v-125h-77v-125zM1962.5 1033.5q-102.5 177.5 -281 280.5t-381.5 103q-204 0 -382.5 -102.5t-280 -281t-101.5 -380.5q0 -207 104 -384.5t280.5 -279t379.5 -101.5q205 0 382.5 103.5t280 282t102.5 379.5 q0 203 -102.5 380.5zM1359 764q32 -15 49.5 -46t17.5 -65q0 -54 -34.5 -89.5t-96.5 -35.5l-140 -244l-106 60l143 246q-8 14 -13 30.5t-5 33.5q0 34 18 62.5t47 45.5v541h120v-539zM1333 619q14 14 14 34q0 18 -15 33t-32 15q-20 0 -34 -14t-14 -34q0 -21 15 -34.5t33 -13.5 q19 0 33 14zM1976 620q-13 -15 -33 -15q-21 0 -34.5 14t-13.5 34t13.5 34t34.5 14q17 0 31.5 -14t14.5 -34q0 -18 -13 -33zM1652.5 1174q-14.5 -13 -31.5 -13q-22 0 -35 15.5t-13 32.5q0 23 16 34.5t33 11.5q19 0 32 -13.5t13 -34.5q0 -20 -14.5 -33zM1013 1176.5 q-13 -15.5 -35 -15.5q-17 0 -31.5 12.5t-14.5 33.5q0 19 12.5 33.5t32.5 14.5q19 0 34 -12t15 -34q0 -17 -13 -32.5zM1823 940.5q-15 13.5 -15 34.5q0 18 14 32t33 14q22 0 35 -14.5t13 -31.5q0 -18 -12.5 -33t-34.5 -15q-18 0 -33 13.5zM776 939q-15 -12 -33 -12 q-22 0 -34.5 15t-12.5 33q3 21 16 33.5t33 12.5q19 0 32.5 -13.5t13.5 -34.5q0 -22 -15 -34zM691.5 619.5q-12.5 -13.5 -31.5 -13.5q-21 0 -35.5 13.5t-14.5 33.5q0 17 13.5 32.5t34.5 15.5q20 0 33 -14t13 -34t-12.5 -33.5zM775 365.5q14 -13.5 14 -33.5q0 -16 -10 -32 t-35 -16q-23 0 -35.5 15t-12.5 30q0 19 12.5 34.5t34.5 15.5q18 0 32 -13.5zM1011 61.5q-15 -11.5 -34 -11.5q-21 0 -33 14.5t-12 33.5q0 22 14.5 34t31.5 12q18 0 33 -14t15 -34q0 -23 -15 -34.5zM1332 -23.5q-15 -13.5 -32 -13.5q-20 0 -34 13.5t-14 33.5t14 34t34 14 t33.5 -14t13.5 -34t-15 -33.5zM1652.5 131q14.5 -13 14.5 -33q0 -19 -12 -33.5t-33 -14.5q-17 0 -33 11.5t-16 34.5q0 18 14 33t34 15q17 0 31.5 -13zM1889 297.5q-14 -13.5 -34 -13.5q-23 0 -34 16.5t-11 35.5t14.5 31t31.5 12q19 0 33 -14t14 -34t-14 -33.5zM398.5 1559.5 q29.5 61.5 86.5 115.5q-3 7 -4 14t-1 14q0 32 23 56t55 24q30 0 54 -21q85 40 163 40q114 0 190 -67t76 -88q0 -4 -1.5 -8.5t-6.5 -6.5l-569 -392q-8 -6 -12 -7.5t-7 -1.5q-19 0 -47.5 66t-28.5 132q0 69 29.5 130.5zM1567 1632q-8 5 -8 15q0 24 77 89.5t188 65.5 q79 0 164 -40q24 21 53 21q32 0 55 -24t23 -56q0 -7 -1 -14t-4 -14q57 -55 86.5 -116.5t29.5 -130.5q0 -66 -28.5 -131.5t-47.5 -65.5q-6 0 -11 4z" />
<glyph unicode="&#x23f3;" d="M1993 -49q43 -10 70.5 -43.5t27.5 -78.5q0 -52 -36 -88t-88 -36h-1334q-52 0 -88.5 37t-36.5 87q0 45 27 77.5t69 42.5q7 287 98.5 454.5t241 243t162.5 103t13 47.5q0 70 -106.5 115.5t-199.5 129.5t-149.5 237.5t-60.5 378.5q-41 10 -68 42.5t-27 77.5q0 50 36.5 87 t88.5 37h1334q52 0 88 -36t36 -88q0 -44 -27.5 -78t-70.5 -42q-4 -291 -94.5 -461t-243.5 -248t-165.5 -106t-12.5 -46q0 -68 107.5 -114.5t198.5 -129.5t147.5 -232t62.5 -370zM682 -47h1233q-4 177 -43 303.5t-110 207.5t-217 150.5t-146 182.5q0 121 171 197.5t255 229 t90 425.5h-1233q4 -270 85.5 -421.5t220.5 -216t174 -109t35 -105.5q0 -119 -174 -196.5t-254.5 -232.5t-86.5 -415zM1803 245q16 -46 26 -103.5t15 -129.5h-1090q4 72 14.5 129.5t26.5 103.5h471v552q0 68 -38 128.5t-132 108.5l-53 27q-27 14 -55.5 31.5t-57.5 41.5h736 q-47 -39 -191.5 -116.5t-144.5 -220.5v-552h473z" />
<glyph unicode="&#x24c2;" d="M2200 217.5q-141 -241.5 -381.5 -379.5t-518.5 -138q-284 0 -526.5 143t-379 383.5t-136.5 515.5q0 272 134.5 512t378.5 384.5t529 144.5q280 0 521 -139.5t380.5 -380.5t139.5 -521q0 -283 -141 -524.5zM2114.5 1212.5q-126.5 217.5 -344 344t-470.5 126.5t-470.5 -126 t-344.5 -344t-127 -471q0 -254 126.5 -471.5t344 -344t471.5 -126.5q253 0 471 127t344 344.5t126 470.5t-126.5 470.5zM1799 1353q13 0 19 -8t7 -16l93 -1109q0 -9 -7.5 -16.5t-18.5 -7.5h-230q-11 0 -18 7t-8 16l-47 471l-178 -477q-3 -7 -10 -12t-15 -5h-172q-11 0 -17 5 t-8 12l-179 477l-45 -471q-2 -9 -9.5 -16t-16.5 -7h-232q-11 0 -18.5 7.5t-7.5 20.5l93 1105q0 9 7 16.5t19 7.5h247q21 0 24 -18l229 -742l228 742q2 8 8.5 13t15.5 5h247z" />
<glyph unicode="&#x25aa;" d="M1557 501h-513v516h513v-516z" />
<glyph unicode="&#x25ab;" d="M1556 1015v-513h-513v513h513zM1459 917h-318v-318h318v318z" />
<glyph unicode="&#x25b6;" d="M2073 731l-1547 -893v1785z" />
<glyph unicode="&#x25c0;" d="M2073 1624v-1785l-1547 893z" />
<glyph unicode="&#x25ca;" d="M1970 739l-619 -1010h-104l-617 1007l617 1014h104zM1718 739l-418 701l-418 -701l418 -704z" />
<glyph unicode="&#x25fb;" d="M2065 1531v-1531h-1531v1531h1531zM1947 1413h-1295v-1295h1295v1295z" />
<glyph unicode="&#x25fc;" horiz-adv-x="500" d="M0 0v0v0v0v0z" />
<glyph unicode="&#x25fd;" d="M1741 1192v-883h-882v883h882zM1623 1075h-646v-649h646v649z" />
<glyph unicode="&#x25fe;" d="M1741 310h-882v882h882v-882z" />
<glyph unicode="&#x2600;" d="M1642 409.5q-143 -141.5 -342 -141.5q-201 0 -343 142t-142 343t142 343t343 142q199 0 342 -141.5t143 -343.5t-143 -343.5zM1195 1326q-13 0 -21 9.5t-8 20.5q0 7 1 9l106 284q7 19 27 19t27 -19l105 -284l1 -9q0 -11 -8 -20.5t-21 -9.5h-209zM1632 1232q-9 7 -9 21 q0 17 17 26l274 127q4 2 12 2q11 0 20 -8t9 -21q0 -3 -1 -6l-2 -6l-126 -274q-7 -14 -20 -17q-18 0 -28 9zM2196 780q19 -7 19 -27t-19 -27l-284 -106l-9 -1q-13 0 -21.5 8t-8.5 22v208q0 11 8 20t19 9q8 0 12 -1zM1952 139l2 -6q0 -4 1 -7q0 -12 -8 -20.5t-21 -8.5 q-6 0 -12 3l-274 126q-17 7 -17 26q0 13 9 21l146 148q9 9 22 9q17 0 26 -17zM1404 180q11 0 20 -9.5t9 -20.5q0 -7 -1 -11l-105 -282q-3 -9 -10.5 -14t-16.5 -5t-16.5 5t-10.5 14l-106 282q0 3 -1 10q0 12 8 21t21 10h209zM968 273q9 -8 9 -21q0 -8 -5.5 -15.5t-12.5 -10.5 l-273 -126q-6 -3 -12 -3q-14 0 -22 8t-8 21l1 7q0 3 2 6l126 274q7 17 26 17q13 0 21 -9zM686 620l-282 106q-9 3 -14 10.5t-5 16.5t5 16.5t14 10.5l288 107h5q13 0 21 -9.5t8 -20.5v-208q0 -13 -8 -21.5t-21 -8.5zM647 1367q-3 4 -3 12q0 14 9.5 21.5t20.5 7.5q8 0 12 -2 l273 -127q7 -3 12.5 -10t5.5 -16q0 -14 -9 -21l-148 -147q-8 -9 -20 -9q-19 0 -27 17z" />
<glyph unicode="&#x2601;" d="M2048 958q117 0 201 -84t84 -201q0 -116 -84 -200t-201 -84q-23 0 -45 3t-43 11q-35 -121 -134 -196t-222 -75q-63 0 -120 20t-103 55q-61 -50 -136.5 -78t-160.5 -28q-138 0 -253 73.5t-172 195.5q-11 0 -30 -1q-155 0 -258.5 103.5t-103.5 248.5q0 140 98 242t236 108 q12 120 104 207t218 87q41 0 78 -10t70 -27q52 65 127 103t165 38q115 0 210 -65t137 -167q23 4 54 4q116 0 200 -83.5t84 -199.5zM2164.5 791.5q-50.5 48.5 -116.5 48.5q-49 0 -83.5 35t-34.5 83q0 68 -49 116.5t-117 48.5q-13 0 -27 -2t-27 -2q-77 0 -111.5 76t-98.5 116 t-137 40q-58 0 -110 -25t-89.5 -70.5t-92.5 -45.5q-27 0 -66 18.5t-82 18.5q-72 0 -131 -47.5t-74 -141t-102 -102.5t-138.5 -48.5t-75.5 -98.5q-17 -42 -17 -88q0 -97 68.5 -166t171.5 -69q13 0 20 2q92 0 126.5 -77t121.5 -134.5t191 -57.5q65 0 121.5 22t94.5 53t81 31 q41 0 93.5 -38t129.5 -38t145 47t98 136t113 89q22 0 43.5 -7t44.5 -7q67 0 117 48t50 118t-50.5 118.5z" />
<glyph unicode="&#x260e;" d="M2052 407q16 -45 20 -91t4 -92q0 -40 -1.5 -79.5t-1.5 -79.5q0 -73 -37 -102t-122 -29h-1235q-85 0 -123 29t-38 102q0 40 -1.5 79.5t-1.5 78.5q0 121 30.5 202.5t139.5 446.5q127 34 202.5 99.5t75.5 147.5q0 29 -5.5 55t-13.5 51q64 33 153 49.5t196 16.5 q127 0 217.5 -17.5t144.5 -48.5q-8 -25 -13.5 -51t-5.5 -55q0 -80 73 -145.5t198 -99.5q35 -118 72 -234zM1245 864q12 -10 47 -10q46 0 60.5 8.5t14.5 39.5q0 26 -15 36.5t-47 10.5q-51 0 -61.5 -10.5t-10.5 -32.5q0 -32 12 -42zM1243.5 711.5q12.5 -12.5 68.5 -12.5 q33 0 45.5 11t12.5 41q0 27 -15.5 39.5t-50.5 12.5q-52 0 -62.5 -11t-10.5 -33q0 -35 12.5 -47.5zM1240.5 544q13.5 -13 64.5 -13q40 0 54 11t14 44q0 28 -16 43.5t-77 15.5q-26 0 -39.5 -12.5t-13.5 -40.5q0 -35 13.5 -48zM1074 466.5q-43 4.5 -48 5.5q-33 0 -48 -16.5 t-15 -59.5q0 -26 12 -37.5t42 -11.5q60 0 80 12.5t20 60.5q0 42 -43 46.5zM1108.5 633q-16.5 12 -65.5 12q-30 0 -47.5 -13t-17.5 -53q0 -31 15.5 -39.5t57.5 -8.5q51 0 62.5 19t11.5 49q0 22 -16.5 34zM1131 747q0 6 1 14q0 26 -19 34t-45 8q-45 0 -61 -12t-16 -48 q0 -31 18.5 -37.5t59.5 -6.5q31 0 44.5 9.5t15.5 25.5zM1121.5 941q-16.5 8 -42.5 8q-39 0 -57 -8.5t-18 -40.5q0 -25 9.5 -35.5t38.5 -10.5q59 0 72.5 12t13.5 44q0 23 -16.5 31zM1377 400v13q0 50 -44 54t-49 5q-31 0 -45 -14t-14 -40q0 -41 11.5 -56t46.5 -15 q66 0 80 13.5t14 39.5zM1465 889q2 -20 17.5 -27.5t42.5 -7.5q43 0 57.5 8t14.5 35q0 26 -14.5 39t-51.5 13q-35 0 -52 -6t-17 -29q0 -8 1 -14zM1482 714q13 -15 72 -15q31 0 43 9.5t12 36.5t-14 42.5t-55 15.5q-43 0 -57 -7t-14 -32q0 -35 13 -50zM1490 546.5 q13 -15.5 68 -15.5q36 0 51 9t15 40q0 37 -17 51t-80 14q-13 0 -31.5 -7.5t-18.5 -34.5q0 -41 13 -56.5zM1541 472q-26 0 -41 -11.5t-15 -35.5q0 -43 13.5 -60.5t50.5 -17.5q49 0 69.5 7.5t20.5 33.5q0 52 -16.5 67t-43.5 15q-21 0 -38 2zM2294 1150v-18q0 -97 -60.5 -149.5 t-168.5 -52.5t-229.5 53.5t-121.5 136.5q0 27 10.5 55t10.5 54q0 69 -131 105t-313 36q-153 0 -290 -37t-137 -103q0 -26 10 -54.5t10 -55.5q0 -77 -114.5 -133.5t-235.5 -56.5q-108 0 -168.5 53t-60.5 149q0 255 285 410.5t709 155.5q409 0 688 -143.5t305 -386.5z" />
<glyph unicode="&#x2611;" d="M2290 1821q20 0 34.5 -14.5t14.5 -34.5v-1980q0 -20 -14.5 -34.5t-34.5 -14.5h-1980q-20 0 -34.5 14.5t-14.5 34.5v1980q0 20 14.5 34.5t34.5 14.5h1980zM2218 1701h-1837v-1837h1837v1837zM1057 153l-610 607l153 152l457 -453l943 952l153 -152z" />
<glyph unicode="&#x2614;" d="M1401 1362q234 -19 433 -119.5t313.5 -262t114.5 -345.5q0 -51 -6.5 -74t-35.5 -23q-22 0 -41 26.5t-85.5 65t-152.5 38.5q-71 0 -131 -27.5t-99 -68t-51.5 -67.5t-38.5 -27q-28 0 -42 30.5t-61 75t-115 66.5v-584q0 -142 -102.5 -244.5t-245.5 -102.5q-94 0 -175 48 t-123 122t-42 117q0 39 28 68.5t71 29.5q31 0 58.5 -19.5t38.5 -61.5t51.5 -75t92.5 -33q62 0 106.5 44.5t44.5 106.5v587q-74 -22 -124 -69.5t-62.5 -76t-40.5 -28.5q-27 0 -38.5 26.5t-51 67t-100.5 68t-130 27.5q-83 0 -148.5 -36.5t-86.5 -65t-44 -28.5t-32.5 26 t-9.5 71q0 184 115 345t315.5 263t439.5 119l15 211q2 31 25.5 51.5t58.5 20.5q31 0 53.5 -20.5t24.5 -51.5zM1670.5 1156q-14.5 -19 -51.5 -105t-37 -148q0 -48 34.5 -82.5t82.5 -34.5t82.5 34.5t34.5 82.5q0 58 -43.5 165t-73.5 107q-14 0 -28.5 -19zM1794.5 1717.5 q43.5 105.5 73.5 105.5q29 0 72.5 -107.5t43.5 -164.5q0 -48 -34 -82.5t-82 -34.5q-49 0 -83 34t-34 83q0 61 43.5 166.5zM615 1682q30 76 49.5 108.5t37.5 32.5q30 0 73.5 -107t43.5 -165q0 -46 -33.5 -81.5t-83.5 -35.5t-83.5 35.5t-33.5 81.5q0 55 30 131z" />
<glyph unicode="&#x2615;" d="M1848 817q197 -21 276 -94t79 -208q0 -71 -25 -131.5t-72.5 -117t-112.5 -99.5t-137 -69t-131.5 -32t-82 -26.5t-34.5 -28.5l-49 -31q-100 -60 -194.5 -84.5t-198.5 -24.5q-195 0 -322.5 54t-226.5 157t-155 221.5t-56 295.5q0 132 46 216t152.5 161t237 104.5 t314.5 27.5q189 0 342 -59.5t247 -154.5l64 -65q8 -8 19 -9zM2059.5 648.5q-44.5 50.5 -129 69.5t-135.5 21t-77.5 46.5t-107.5 101.5t-208.5 94.5t-280.5 37.5q-289 0 -449.5 -105.5t-160.5 -325.5q0 -237 163 -428.5t494 -191.5q88 0 204.5 37t183.5 87.5t74.5 50.5t76 9 t147.5 44t140.5 92.5t85.5 115.5t24 100q0 94 -44.5 144.5zM1446.5 548.5q-122.5 -76.5 -329.5 -76.5q-108 0 -217 26.5t-173.5 87t-64.5 132.5q0 108 137.5 179t359.5 71q180 0 295 -76t115 -167q0 -100 -122.5 -176.5zM1901 326.5q-92 -85.5 -209 -85.5q-27 0 -27 11 q0 10 26.5 75.5t47 169t20.5 113.5q0 5 2 7q2 6 13 8t25 2q109 0 151.5 -32.5t42.5 -92.5q0 -90 -92 -175.5zM1878 526q-19 15 -38 15q-5 0 -13 -2q-2 -19 -9 -53l-15 -65q-4 -17 -10 -33.5t-11 -33.5l-2 -5q-2 -3 -2 -6q0 -6 8 -6t21.5 9t23.5 17l8 7q22 19 40 49t18 65 q0 27 -19 42zM1560 1624q63 -10 126 -10q100 0 172.5 38t97.5 105t59 67q21 0 33.5 -56t12.5 -116q0 -169 -99 -277.5t-274 -108.5q-51 0 -129.5 11.5t-129.5 11.5q-112 0 -206 -27t-145 -75l-25 -23q-14 -14 -30 -14q-22 0 -31 18.5t-9 53.5q0 120 60.5 220.5t174 146 t216.5 45.5q63 0 126 -10zM1057 1256q45 45 118 87t212 42q52 0 145.5 -14.5t148.5 -14.5q95 0 167 49t106 125t34 111q0 12 -6 12t-25.5 -29t-82 -61.5t-151.5 -32.5q-69 0 -136.5 10t-136.5 10q-127 0 -213.5 -40.5t-134 -123.5t-47.5 -123q0 -7 2 -7z" />
<glyph unicode="&#x261d;" d="M2000.5 580.5q-36.5 -104.5 -107 -185.5t-148 -123t-102 -65.5t-32 -40t-11.5 -78.5q45 0 61 -24t16 -119v-34l-1 -12v-14l29 -2q23 -2 44.5 -17t25.5 -47.5t4 -57.5l-1 -28v-43q0 -23 -1 -49l-999 2l4 128q0 23 3 41l2 26q4 61 14.5 76t50.5 18h13q4 38 11.5 77.5 t16.5 74.5t46 35h8l21 -3q-20 82 -76 115.5t-106.5 97t-90.5 189t-61 177.5l-36 84q-16 37 -25.5 71.5t-9.5 75.5q0 89 64 155.5t151 66.5l19 -1q8 0 17 3t30.5 55t71 79t97.5 27q14 0 25.5 -3t20.5 -3q19 0 37 28t69 60.5t113 32.5q21 0 39.5 -2.5t34.5 -7.5l2 132l1 254 q5 99 70 170.5t163 71.5q116 0 189.5 -71t73.5 -177q0 -10 -2 -53l-5 -106l-7 -134q-4 -72 -7 -139l-9 -202q0 -22 31 -53q80 -30 132.5 -100.5t52.5 -214.5q0 -109 -36.5 -213.5zM1475 1222l12 -39l11 -43q37 6 79 6q25 0 43 -1t33 -2l54 -7l1 41q0 32 4 79l5 103l10 228 q0 30 3.5 90t4.5 83l1 34q0 63 -40.5 99.5t-100.5 36.5q-50 0 -81 -37.5t-34 -92.5zM1166.5 1192.5q2.5 -12.5 11.5 -42.5l14 -54q26 -99 55.5 -186t97.5 -87q22 0 36.5 8.5t23.5 19.5q-32 23 -45 59t-13 83q0 42 15 69t42 44q-2 8 -22.5 108t-115.5 100q-49 0 -75.5 -27.5 t-26.5 -68.5q0 -13 2.5 -25.5zM890.5 1055.5q2.5 -10.5 12.5 -37.5l19 -47q10 -26 22.5 -54.5t25.5 -54.5l23 -47q23 -48 46.5 -61.5t49.5 -13.5q33 0 62.5 22.5t29.5 56.5q0 13 -4 26l-35 119q-21 68 -47 148t-102 80q-51 0 -78 -29.5t-27 -78.5q0 -18 2.5 -28.5zM905 661 q32 22 32 57q0 13 -6 28l-84 210q-14 34 -38.5 48.5t-50.5 14.5q-47 0 -71.5 -28t-24.5 -74t41.5 -125.5t65 -116t66.5 -36.5q38 0 70 22zM1588 -95q0 57 -4.5 69t-23.5 12q-48 0 -113 2t-128 5l-237 11q-47 2 -61 3l-16 1q-20 0 -25.5 -18.5t-8.5 -31.5l-7 -29 q-3 -14 -4 -21l42 -5q89 -11 309.5 -19t239.5 -8l37 -1v30zM1861.5 983.5q-62.5 51.5 -133.5 54.5q-15 0 -35 3l-44 5q-24 3 -50 5.5t-51 2.5q-58 0 -88.5 -23.5t-30.5 -69.5q0 -62 65 -100.5t125 -38.5q8 0 11 1q-3 -8 -12 -49.5t-9 -71.5q-70 -17 -130.5 -42t-98.5 -63 l-28 -28q-12 -13 -22.5 -21.5t-21.5 -8.5q-22 0 -22 22q0 23 24 76t36 73l-9 -2q-5 0 -17 -1q-22 0 -39 5t-29 11q-7 -8 -39.5 -48t-103.5 -40q-27 0 -50.5 4.5t-31.5 9.5q-7 -42 -46.5 -76t-125.5 -34q-11 0 -15 1q8 -82 40 -128.5t90.5 -90t81 -95t28.5 -124.5 q61 -7 193 -13.5t224 -6.5l5 52q7 80 60.5 131t141 104t154 166t66.5 255t-62.5 193.5z" />
<glyph unicode="&#x263a;" d="M2108.5 263q-125.5 -217 -342.5 -342.5t-466 -125.5t-466 125.5t-342.5 342.5t-125.5 466t125.5 466t342.5 342.5t466 125.5t466 -125.5t342.5 -342.5t125.5 -466t-125.5 -466zM2007 1136q-110 190 -300 300t-407 110q-213 0 -402 -106.5t-302 -297t-113 -413.5 q0 -220 110 -408.5t298.5 -298.5t408.5 -110q223 0 413.5 113t297 302t106.5 402q0 217 -110 407zM876.5 1027q40.5 50 98.5 50t99 -49.5t41 -117.5q0 -69 -41.5 -117.5t-98.5 -48.5t-98 48.5t-41 117.5q0 67 40.5 117zM1524.5 1027q40.5 50 98.5 50t99 -49.5t41 -117.5 q0 -69 -41.5 -117.5t-98.5 -48.5t-98 48.5t-41 117.5q0 67 40.5 117zM1736 387q-96 -107 -214 -147t-222 -40q-106 0 -222.5 40t-213.5 146t-97 184q0 20 12.5 34t35.5 14q34 0 96 -67.5t163 -115t226 -47.5q120 0 221 45t165 115t98 70q20 0 34 -12.5t14 -35.5 q0 -76 -96 -183z" />
<glyph unicode="&#x2648;" d="M2246 960.5q-25 -89.5 -72 -147.5l-212 174q10 12 22.5 53t12.5 81q0 114 -83.5 194t-195.5 80q-115 0 -197.5 -81.5t-82.5 -196.5v-1292h-275v1292q0 114 -82 196t-196 82q-115 0 -197.5 -80.5t-82.5 -193.5q0 -43 12 -81.5t24 -52.5l-214 -174q-47 58 -72 144.5 t-25 159.5q0 228 163.5 390.5t391.5 162.5q125 0 231.5 -51t184.5 -138q77 87 184.5 138t232.5 51q236 0 394.5 -156t158.5 -397q0 -67 -25 -156.5z" />
<glyph unicode="&#x2649;" d="M1739 1067q136 -101 216 -256t80 -332q0 -198 -102 -370.5t-272.5 -268t-360.5 -95.5q-191 0 -361 95t-272.5 267.5t-102.5 371.5q0 177 80 332t216 256q-136 102 -216 257t-80 331h296q0 -183 130 -311.5t310 -128.5t310 128.5t130 311.5h295q0 -176 -80 -331t-216 -257 zM1609.5 791q-130.5 130 -309.5 130t-309.5 -130t-130.5 -312q0 -181 130 -310t310 -129t310 129t130 310q0 182 -130.5 312z" />
<glyph unicode="&#x264a;" d="M2119 1351q-56 -14 -130 -28.5t-164 -28.5v-1112q90 -14 164 -28t130 -28v-304q-158 43 -379 73.5t-440 30.5t-440.5 -30.5t-379.5 -73.5v304q57 14 130.5 28t163.5 28v1112q-90 14 -163.5 28.5t-130.5 28.5v302q199 -50 410.5 -76t409.5 -26t409 26t410 76v-302z M1530 1264q-54 -4 -112 -6t-118 -2q-61 0 -118 2t-113 6v-1052q56 5 113 6.5t118 1.5q60 0 118 -1.5t112 -6.5v1052z" />
<glyph unicode="&#x264b;" d="M884 -54q-209 45 -432 144l130 264q172 -75 355.5 -117t362.5 -42q69 0 138 10t136 27q-93 62 -149 164.5t-56 219.5q0 190 136.5 326t324.5 136q190 0 326 -136t136 -326q0 -200 -130 -362.5t-365.5 -257.5t-496.5 -95q-207 0 -416 45zM1712 499q49 -50 118 -50 q70 0 119 50t49 117q0 66 -49 116.5t-119 50.5t-118.5 -50.5t-48.5 -116.5q0 -67 49 -117zM443.5 1296.5q136.5 163.5 369 255t487.5 91.5q211 0 432.5 -50t415.5 -139l-131 -264q-238 98 -402 128.5t-315 30.5q-70 0 -139 -10t-135 -27q95 -64 149.5 -166t54.5 -218 q0 -190 -136 -326t-324 -136q-189 0 -326 136t-137 326q0 205 136.5 368.5zM887 1046.5q-49 48.5 -117 48.5q-70 0 -118.5 -48.5t-48.5 -118.5q0 -68 48.5 -117.5t118.5 -49.5q69 0 117.5 49.5t48.5 117.5q0 70 -49 118.5z" />
<glyph unicode="&#x264c;" d="M2229 -233q-113 -75 -249 -75q-196 0 -323.5 145.5t-127.5 369.5q0 123 26 266.5t96 325.5t70 334q0 153 -89 237.5t-233 84.5q-132 0 -227 -95t-95 -227l1 -29q2 -43 21.5 -114.5t63.5 -148t73 -174.5t29 -202q0 -185 -131.5 -316.5t-315.5 -131.5q-186 0 -317 133 t-131 315q0 183 132 314.5t313 131.5q-16 58 -24 110t-8 90l-1 24q0 253 182 434t435 181q270 0 443 -172.5t173 -444.5q0 -216 -95.5 -457t-95.5 -463q0 -100 40 -163t116 -63q46 0 85 24zM925.5 571.5q-44.5 45.5 -107.5 45.5q-64 0 -108.5 -45.5t-44.5 -106.5 q0 -63 44.5 -108.5t108.5 -45.5q63 0 107.5 45.5t44.5 108.5q0 61 -44.5 106.5z" />
<glyph unicode="&#x264d;" d="M1784 100q36 -23 95.5 -37t146.5 -14v-294q-146 0 -249 29.5t-162 73.5t-73 63l-10 12q-195 -107 -443 -189l-92 279q128 43 231.5 88.5t189.5 94.5q-8 51 -9 101.5t-1 93.5v955q0 46 -32.5 77.5t-75.5 31.5q-45 0 -77.5 -31.5t-32.5 -77.5v-855h-294v855 q0 46 -32.5 77.5t-75.5 31.5q-46 0 -77.5 -31.5t-31.5 -77.5v-855h-294v855q0 166 119 284.5t284 118.5q73 0 138 -24t118 -68q53 44 118 68t138 24q153 0 269 -104t132 -259q52 15 111 15q183 0 293 -111t110 -292q0 -281 -107 -507t-324 -401zM1703 1012v-589 q108 114 163 257t55 328q0 47 -32.5 78t-76.5 31q-45 0 -77 -30t-32 -75z" />
<glyph unicode="&#x264e;" d="M2133 553v-295h-692v306q129 44 212.5 159t83.5 255q0 180 -128.5 308.5t-308.5 128.5t-308.5 -128.5t-128.5 -308.5q0 -142 83.5 -256.5t211.5 -157.5v-306h-692v295h238q-65 92 -100 199.5t-35 225.5q0 195 97 363.5t266 268t368 99.5q300 0 516 -216t216 -515 q0 -118 -36 -225.5t-101 -199.5h238zM2133 136v-294h-1667v294h1667z" />
<glyph unicode="&#x264f;" d="M1888 -281v277h-110q-169 0 -292 122.5t-123 293.5v839q0 51 -35.5 86.5t-86.5 35.5t-86.5 -35.5t-35.5 -86.5v-896h-294v896q0 50 -35.5 86t-85.5 36q-51 0 -86.5 -36t-35.5 -86v-896h-294v896q0 172 122 294t294 122q76 0 145 -26t124 -73q54 47 122 73t146 26 q172 0 294.5 -123t122.5 -293v-839q0 -50 35.5 -86t84.5 -36h110v278l424 -424z" />
<glyph unicode="&#x2650;" d="M2117 1549v-1092h-276v622l-622 -622l259 -259l-194 -195l-259 260l-347 -348l-195 195l347 347l-259 260l195 193l259 -259l622 622h-622v276h1092z" />
<glyph unicode="&#x2651;" d="M2105.5 94.5q-143.5 -143.5 -342.5 -143.5q-75 0 -142 21t-125 58q-60 -121 -179.5 -194t-257.5 -73v276q88 0 152 64t64 152v903q0 88 -64 152t-152 64q-89 0 -153 -63.5t-64 -152.5v-721h-275v721q0 88 -64 152t-152 64v276q104 0 195 -41t158 -111q68 70 158.5 111 t196.5 41q202 0 347 -145t145 -347v-282q48 23 101 35.5t111 12.5q200 0 343 -143.5t143 -343.5q0 -199 -143.5 -342.5zM1912.5 587q-61.5 63 -149.5 63q-89 0 -150.5 -62.5t-61.5 -150.5q0 -86 61.5 -148.5t150.5 -62.5q88 0 149.5 62.5t61.5 148.5q0 87 -61.5 150z" />
<glyph unicode="&#x2652;" d="M1948 650l252 -173v-320l-7 -10l-245 169l-323 -222l-322 222l-324 -222l-323 222l-245 -169l-11 17v309l256 177l323 -223l324 223l322 -223zM2200 1204v-321l-7 -10l-245 170l-323 -223l-322 223l-324 -223l-323 223l-245 -170l-11 17v311l256 175l323 -222l324 222 l322 -222l323 222z" />
<glyph unicode="&#x2653;" d="M2166 602h-336q16 -199 71.5 -401.5t138.5 -373.5h-324q-74 181 -122 382.5t-60 392.5h-483q-13 -198 -61 -399t-122 -376h-322q78 160 135.5 365t73.5 410h-321v295h321q-16 198 -71.5 400t-137.5 375h322q78 -188 124 -385.5t59 -389.5h483q12 185 58 382t124 393h324 q-88 -185 -141.5 -384t-68.5 -391h336v-295z" />
<glyph unicode="&#x2660;" d="M1319 1683l48 -28q200 -120 403 -302t314 -375t111 -377q0 -191 -138 -329t-329 -138q-87 0 -164 29t-139 82q25 -153 74 -282.5t59 -139.5q2 -5 3.5 -10.5t1.5 -10.5q0 -15 -11.5 -26.5t-28.5 -11.5h-447q-16 0 -28 11.5t-12 26.5t15 40.5t56 139.5t67 263 q-62 -53 -139 -82t-162 -29q-193 0 -331 138t-138 329q0 190 117 386.5t318.5 374.5t393.5 293l48 28l9 4q4 2 9 2t10 -2z" />
<glyph unicode="&#x2663;" d="M2117.5 218q-137.5 -138 -331.5 -138q-104 0 -194.5 42.5t-154.5 114.5q21 -103 50 -187.5t56 -140.5l15 -32q2 -4 3.5 -9t1.5 -10q0 -17 -11.5 -27.5t-28.5 -10.5h-448q-14 0 -26.5 10.5t-12.5 27.5q0 13 18 46t50.5 124t58.5 209q-65 -72 -155 -114.5t-196 -42.5 q-192 0 -329.5 138t-137.5 330t138.5 330t328.5 138q34 0 66 -6q-22 47 -34.5 97.5t-12.5 105.5q0 191 138 329.5t331 138.5q191 0 329 -137.5t138 -330.5q0 -108 -46 -203q33 6 65 6q192 0 330.5 -138t138.5 -330t-137.5 -330z" />
<glyph unicode="&#x2665;" d="M2074.5 683.5q-101.5 -183.5 -299.5 -365.5t-409 -309l-47 -28q-8 -6 -19 -6q-12 0 -19 6l-47 28q-201 119 -402 302t-305 368.5t-104 360.5q0 187 135 322.5t324 135.5q134 0 249 -74.5t169 -195.5q56 124 170.5 197t247.5 73q190 0 324 -135.5t134 -322.5 q0 -173 -101.5 -356.5z" />
<glyph unicode="&#x2666;" d="M2093 763q8 -11 8 -25q0 -6 -1.5 -12.5t-6.5 -11.5l-763 -976q-11 -15 -30 -15t-32 15l-761 976q-5 5 -6.5 11.5t-1.5 12.5q0 14 8 25l761 975q5 8 14 11t18 3q8 0 16.5 -3t13.5 -11z" />
<glyph unicode="&#x2668;" d="M831 346q12 25 21.5 74.5t9.5 117.5q0 149 -49.5 309.5t-49.5 281.5q0 131 53 230t136 153t107 54q8 0 14.5 -4.5t6.5 -14.5q0 -14 -11 -19q-11 0 -38 -53.5t-27 -165.5q0 -137 42 -302t42 -273q0 -155 -64.5 -268.5t-176.5 -167.5q-2 0 -4.5 -1t-4.5 -1q-8 0 -14 6 t-6 14t4 13zM1192 846q-49 159 -49 282q0 130 52.5 230t135 154t108.5 54q9 0 14.5 -6t5.5 -14q0 -13 -18.5 -25.5t-38.5 -65t-20 -147.5q0 -138 42 -301.5t42 -274.5q0 -127 -44 -227.5t-113.5 -154.5t-90.5 -54q-9 0 -15.5 6.5t-6.5 15.5q0 6 9.5 20.5t22.5 67.5t13 132 q0 149 -49 308zM1580 329q16 32 28.5 84t12.5 123q0 147 -50 307t-50 286q0 130 52.5 229t135.5 153.5t108 54.5q9 0 15.5 -5.5t6.5 -14.5q0 -11 -18 -23t-38.5 -64.5t-20.5 -149.5q0 -137 41.5 -299.5t41.5 -275.5q0 -131 -45.5 -230.5t-113.5 -152.5t-82 -53q-2 0 -4 -1 t-4 -1q-7 0 -13.5 6t-6.5 14t4 13zM2104 120.5q-124 -130.5 -338.5 -206.5t-465.5 -76t-466 76.5t-339 207t-124 280.5q0 79 33 150t92 131.5t72 65t23 4.5q14 0 24 -9t10 -24q0 -16 -31.5 -72.5t-31.5 -124.5q0 -181 217 -312t521 -131q199 0 373.5 61.5t270 164 t95.5 217.5q0 51 -20 97.5t-31.5 62.5t-11.5 37q0 15 9 24t23 9q41 0 130.5 -111t89.5 -240q0 -151 -124 -281.5z" />
<glyph unicode="&#x267b;" d="M1196.5 1435q11.5 6 31.5 6h17q4 0 25.5 1t53.5 1h172q44 -2 68.5 -17t63.5 -76l43 -65l20 -30q21 -35 37.5 -50.5t32.5 -15.5q8 0 39 18.5t56 18.5q14 0 23 -9t9 -32q0 -12 -2 -25l-4 -24q-8 -64 -21.5 -124t-22.5 -110.5t-80 -50.5l-58 1q-112 0 -205 15.5t-93 46.5 q0 26 45.5 58t45.5 54q0 31 -54 83t-148 169.5t-100 120t-6 16.5t11.5 20zM1271.5 1074q-41.5 -48 -91 -120t-83.5 -72q-12 0 -56.5 29.5t-97.5 70.5l-27 19q-35 24 -52.5 43t-18.5 37q0 39 32.5 82t91.5 139.5t98 96.5q34 0 99 -64.5t106 -107.5t41 -71q0 -34 -41.5 -82z M761 330l-26 -73q-24 -66 -40 -97t-26 -31q-6 0 -15 10t-18 25l-8 13q-38 50 -71.5 113.5t-53 97t-19.5 67.5l2 22q2 19 38 94.5t37 77.5l16 30q8 15 13.5 28.5t5.5 25.5q0 13 -15 22l-32 19q-18 10 -33 22.5t-15 31.5q0 36 130 76t142 47t49 7q31 0 58.5 -26t55.5 -92 l34 -79q8 -22 30.5 -80.5t22.5 -78.5q0 -17 -9 -28t-28 -11q-18 0 -51.5 16t-48.5 16q-27 0 -49.5 -68t-28.5 -74.5t-47 -122.5zM1174 147q-15 -99 -26.5 -123t-52.5 -24q-67 0 -136 4.5t-137 9.5q-34 0 -58 10t-24 38q0 69 23.5 138.5t45.5 127t58 57.5q11 0 23 -1l21 -3 q176 -20 227 -25t51 -48q0 -62 -15 -161zM2059.5 325q-27.5 -54 -46.5 -82.5t-41.5 -75.5t-46.5 -69.5t-87 -26.5t-95.5 -6t-84 -9t-63.5 -19q-8 -8 -8 -23l1 -39v-22q0 -21 -8 -35t-22 -14q-18 0 -24.5 7.5t-112 98.5t-123.5 120.5t-18 49.5q0 25 58 103.5t105 139.5t80 61 q17 0 23.5 -10.5t6.5 -26.5q0 -9 1.5 -16.5t1.5 -30.5q0 -31 9.5 -47.5t34.5 -16.5q43 0 122.5 13.5t153.5 26.5l73 12q35 6 64.5 10t44.5 4q11 0 20 -2.5t9 -11.5t-27.5 -63zM2077.5 478q-37.5 -21 -94 -33.5t-92.5 -24.5t-74 -12q-26 0 -63.5 58t-54.5 108.5t-33 82.5 q-14 28 -14 61q0 31 101 71.5t105 42.5l48 18q25 9 41 9q42 0 80 -90.5t63 -148.5t25 -91q0 -30 -37.5 -51z" />
<glyph unicode="&#x267f;" d="M1541 184l66 4q-24 -209 -182.5 -350t-367.5 -141q-226 0 -389 163t-163 389q0 200 130.5 354.5t326.5 188.5q3 -65 11 -128t26 -124q-104 -22 -171 -104t-67 -187q0 -122 87.5 -209.5t208.5 -87.5q107 0 189.5 68.5t102.5 171.5q33 -6 64.5 -8t59.5 -2q35 0 68 2z M1868 -86q-25 83 -44 166.5t-49.5 155t-132.5 71.5q-40 0 -80.5 -3.5t-86.5 -3.5q-168 0 -240 62.5t-115 182.5t-43 395q0 131 41.5 205t117.5 74q70 0 110.5 -28t94.5 -100.5t134.5 -114.5t169 -61.5t137 -32t102.5 -51.5t54 -91q0 -31 -17 -49t-43 -18q-49 0 -86.5 26 t-91.5 29t-110 10.5t-138 48.5l-30 14q-12 6 -17 6q-9 0 -9 -14q2 -94 17 -130t50 -61.5t137 -40.5t154 -45.5t83.5 -88.5t43.5 -114l5 -29q32 -206 60 -228t69.5 -21t70 -20.5t28.5 -55.5q0 -52 -71 -90t-144 -38q-106 0 -131 83zM1054.5 1682q65.5 65 154.5 65 q91 0 156.5 -65t65.5 -156q0 -92 -64.5 -157t-157.5 -65q-88 0 -154 65t-66 157q0 91 65.5 156z" />
<glyph unicode="&#x2693;" d="M2204 303q-18 0 -41 23.5t-41 23.5q-24 0 -29.5 -26t-57 -129.5t-139.5 -201.5t-206 -157t-250 -84.5t-260.5 -3.5t-242.5 74t-200 135t-146 189q-50 85 -69.5 144.5t-43.5 59.5q-18 0 -41 -23.5t-41 -23.5q-34 0 -34 35q0 28 16.5 84t37.5 113l18 47q12 31 32.5 49 t45.5 18q31 0 70.5 -24.5t77.5 -50t73 -57.5t35 -50q0 -32 -53 -32q-24 0 -39.5 -3.5t-15.5 -20.5q0 -50 130 -184.5t250 -134.5q57 0 83 36.5t30 89.5l7 72l29 245l4 30q2 15 2 31q0 67 -82 90t-151 34t-69 70q0 41 24 58.5t120 17.5q119 0 151.5 20t32.5 111 q0 31 -11 51.5t-33 33.5l-29 15q-93 48 -145 127t-52 173q0 129 103.5 216.5t245.5 87.5t245 -87t103 -215q0 -126 -62 -198.5t-134.5 -104t-72.5 -98.5q0 -18 3 -36l4 -35q4 -30 42 -45.5t136 -15.5q90 0 116 -18.5t26 -57.5q0 -58 -62.5 -68.5t-114.5 -24.5t-88 -32.5 t-36 -70.5q0 -18 2.5 -31.5t3.5 -27.5l27 -245l7 -71q5 -51 31 -89t83 -38q64 0 143 48t135 115l22 25q28 33 53.5 71t25.5 60q0 15 -13 19.5t-40 4.5q-25 0 -40 7t-15 24q0 26 64.5 74.5t113 78.5t78.5 30q60 0 106 -133t46 -179q0 -34 -34 -34zM1395 1293q39 40 39 95 q0 56 -39 95t-95 39t-95 -39t-39 -95q0 -55 39 -95t95 -40t95 40z" />
<glyph unicode="&#x26a0;" d="M2414 -175q8 -14 8 -30q0 -24 -17.5 -41t-41.5 -17h-2127q-23 0 -41 16.5t-18 41.5q0 16 8 30l1064 1843q8 14 22 21.5t29 7.5q33 0 51 -29zM2262 -145l-962 1665l-962 -1665h1924zM1214 403q-5 0 -8.5 3.5t-3.5 6.5l-47 677q0 5 4 8t7 3h267q5 0 8.5 -3.5t3.5 -7.5 l-48 -677q0 -3 -3 -6.5t-8 -3.5h-172zM1402 149q38 -35 38 -101q0 -60 -36 -97.5t-102 -37.5t-104 35t-38 100q0 67 36.5 101.5t105.5 34.5q62 0 100 -35z" />
<glyph unicode="&#x26a1;" d="M2125 770q5 0 10 -5t5 -10q0 -14 -10 -20l-1619 -1018q-3 -3 -10 -3t-13.5 5t-6.5 14q0 3 1 7t4 7l711 773l-723 213q-5 2 -9.5 7t-4.5 12q0 11 8 17l1617 986q4 3 11 3q6 0 12.5 -5t6.5 -14q0 -3 -1 -7t-4 -7l-710 -773z" />
<glyph unicode="&#x26aa;" d="M1465 596.5q-69 -68.5 -165 -68.5t-165 68.5t-69 165.5q0 96 69 165t165 69t165 -69t69 -165q0 -97 -69 -165.5zM1382 844q-34 34 -82 34t-82 -34t-34 -82t34 -82t82 -34t82 34t34 82t-34 82z" />
<glyph unicode="&#x26ab;" d="M1465 597.5q-69 -68.5 -165 -68.5t-165 68.5t-69 165.5q0 96 69 165t165 69t165 -69t69 -165q0 -97 -69 -165.5z" />
<glyph unicode="&#x26bd;" d="M2205 203q-142 -244 -385 -382.5t-520 -138.5q-278 0 -521 139t-384.5 383t-141.5 525q0 278 139 521t382.5 385t525.5 142q281 0 525 -142t383 -385t139 -521q0 -282 -142 -526zM2008 549q61 37 116.5 83.5t104.5 105.5q0 108 -23.5 200.5t-34 111.5t-72 76.5 t-140.5 106.5q-39 -36 -89 -69t-80.5 -55.5t-63.5 -31.5q3 -31 5 -71.5t2 -88.5q0 -41 -2 -85.5t-6 -94.5q64 -18 158.5 -79.5t124.5 -108.5zM371 726q0 -171 58.5 -323.5t160.5 -273.5q20 5 39 9t39 9q-26 59 -47 138.5t-25 172.5q-49 32 -98.5 101t-78.5 168h-23 q-12 0 -25 -1zM655 1397q-17 -65 -23 -122.5t-6 -101.5v-21q0 -10 1 -18q56 -5 105 -18t102 -26l22 -6q11 -4 22 -9q89 89 197 148.5t222 88.5q-2 13 -2 25v23q0 48 8.5 114t26.5 101q-67 30 -135.5 49t-88.5 15t-89.5 -24t-149.5 -63q-117 -63 -212 -155zM1118 -81 q100 29 179 71.5t141 93.5q-33 65 -67 169.5t-38 146.5q-124 23 -241.5 71.5t-206.5 109.5q-28 -19 -59 -32.5t-58 -29.5l-58 -31q-30 -16 -55 -26q5 -97 29 -179.5t52 -141.5l22 -16q19 -15 95.5 -63t264.5 -143zM1666 736q4 48 6 91.5t2 82.5q0 51 -2.5 94.5t-5.5 76.5 q-12 6 -49 26l-84 46q-117 63 -155 80t-41 19l-14 7q-112 -27 -214 -84t-187 -139q3 -8 4 -16v-17q0 -63 -2 -126t-2 -126q0 -30 2 -60.5t2 -65.5q81 -55 193.5 -101t227.5 -66q81 113 187.5 190t131.5 88zM2097 1207q-67 111 -164 201q16 -19 34.5 -58t18.5 -64 q25 -15 53.5 -34.5t57.5 -44.5zM1559 1622q-62 17 -126.5 27t-136.5 10q-9 0 -14 -1q30 -11 55.5 -21.5t47.5 -21.5q5 2 30.5 5t85.5 3h28q14 0 30 -1zM578 1314q-90 -111 -143 -245t-62 -284h20q9 0 19 1q5 80 60.5 185.5t95.5 142.5q0 11 -1 25v27q0 31 2.5 67.5t8.5 80.5 zM1203 -195q23 -3 47.5 -4t49.5 -1q178 0 333.5 61.5t280.5 169.5q-19 21 -34.5 40t-26.5 34q-56 -31 -148.5 -50t-192.5 -19q-10 0 -19 1h-19q-80 -65 -159.5 -104.5t-144.5 -59.5zM1958 74q112 112 182.5 258t85.5 315q-57 -58 -117.5 -102t-97.5 -61q-5 -85 -36.5 -180 t-75.5 -159q10 -14 25 -33t34 -38z" />
<glyph unicode="&#x26be;" d="M2208 211q-139 -243 -383 -385t-525 -142q-283 0 -527 143.5t-382 385.5t-138 519q0 280 140.5 523t383.5 383.5t523 140.5q277 0 520 -138.5t385 -382.5t142 -526q0 -278 -139 -521zM2225 817q-4 41 -11 82q-5 3 -19 8t-31 5q-8 0 -18.5 -3.5t-18.5 -3.5q-11 0 -19 8 t-8 19q0 22 -9 40.5t-19 26.5l-8 7q-5 5 -8 10.5t-3 11.5q0 11 8 18.5t19 7.5q17 0 39 -28.5t30 -60.5h14q22 0 37 -4q-8 23 -15 49.5t-16 51.5q-5 -2 -12 -5.5t-13 -3.5q-21 0 -28 22.5t-27 39t-27 16.5q-18 7 -18 26q0 11 8.5 18.5t18.5 7.5q11 0 29.5 -12t29.5 -22 l-23 43q-9 17 -18 29q-11 3 -19 3t-14 -1.5t-9 -1.5q-11 0 -19.5 7.5t-8.5 18.5q0 14 9 20t24 9q-24 33 -51 66q-3 -4 -13 -4q-11 0 -19.5 7.5t-8.5 18.5q0 10 6 16q-133 135 -305.5 208t-360.5 73q-103 0 -204 -23q-7 -17 -25 -17q-9 0 -16 7l-56 -18q2 -3 4 -9.5t2 -10.5 q0 -10 -7.5 -18t-18.5 -8q-9 0 -15.5 4.5t-15.5 22.5q-16 -6 -32.5 -13.5t-31.5 -15.5q9 -30 33.5 -44t24.5 -32q0 -13 -7.5 -19.5t-18.5 -6.5l-11 2q-17 9 -37 28t-31 46q-10 -5 -25.5 -14t-32.5 -21l-34 -24q-17 -13 -29 -23q5 0 9 -1h9q23 0 37 7.5t22 7.5q24 0 26.5 -22 t25.5 -45.5t23 -20.5q8 -3 12 -9.5t4 -13.5q0 -11 -8 -19t-19 -8q-18 0 -45.5 27.5t-34.5 48.5q-24 -7 -44 -7q-26 0 -42 6t-21 9q-144 -132 -221.5 -311t-77.5 -371q0 -54 6 -106.5t17 -104.5q7 3 13 3q9 0 18.5 -5.5t33.5 -5.5t34.5 6t20.5 6q23 0 28 -33.5t30 -50.5 t25 -34q0 -10 -8.5 -17t-17.5 -7q-6 0 -12 3q-5 0 -30 24t-35 54q-16 -4 -34 -4q-16 0 -29.5 3t-21.5 6q5 -19 12 -37l12 -35q8 2 12 2q11 0 18.5 -7t7.5 -16q3 -29 22 -49.5t23 -20.5q7 -3 10 -9.5t3 -12.5q0 -11 -6 -19t-22 -8q112 -186 294 -304.5t393 -143.5 q-15 12 -31.5 16t-29.5 4h-9.5t-7.5 -1q-11 0 -18.5 8t-7.5 19q0 16 10 22t33 6q15 0 35.5 -4.5t41.5 -16.5q14 21 40.5 38.5t48.5 17.5q11 0 18.5 -7.5t7.5 -18.5q0 -9 -5.5 -16.5t-14.5 -9.5l-8 -2q-25 -7 -42 -32.5t-19 -26.5q34 -3 70 -3q245 0 461 123.5t342 341 t126 465.5q0 44 -4 85zM1682 643q36 -8 85 -56q4 -5 4 -15q0 -11 -7.5 -18.5t-18.5 -7.5q-15 0 -36 23t-60 25q-9 0 -17.5 6.5t-8.5 20.5q0 11 3.5 21.5t3.5 19.5q0 22 -5 35l-7 15q-6 8 -6 15q0 10 8 18t18 8q22 0 34 -29.5t12 -59.5v-10q0 -6 -2 -11zM1271 35 q13 0 19.5 -7.5t6.5 -18.5t-8 -19.5t-19 -8.5h-10q-31 -2 -52 -23.5t-35 -21.5t-22 14.5t-27 26.5t-33 14l-9 1q-11 2 -17 9t-6 16q0 12 7.5 20.5t19.5 8.5q15 0 42 -11t49 -33q17 15 39 22.5t44 9.5zM2064 857q27 -4 48.5 -15.5t34.5 -23.5l7 -8q6 -8 6 -18 q0 -9 -7.5 -17.5t-20.5 -8.5q-11 0 -18 10q-12 11 -30.5 20t-38.5 9h-11q-11 0 -18.5 7.5t-7.5 18.5q0 8 1.5 15t1.5 15q0 25 -9 41l-10 17q-7 7 -7 16q0 11 8.5 18.5t18.5 7.5q12 0 20 -8l7 -10q9 -15 17 -37.5t8 -48.5zM1932 784q25 -9 43.5 -24t28.5 -30l6 -9q2 -8 2 -12 q0 -9 -7.5 -18.5t-18.5 -9.5q-13 0 -34.5 28t-58.5 30q-9 0 -16 7t-7 18q0 12 6 25.5t6 26.5q0 12 -2 20.5t-4 14.5l-5 11q-2 4 -2 9q0 9 7 18t17 9q19 0 30 -24t11 -58v-16q0 -8 -2 -16zM1447 481q25 -6 46 -19.5t30 -24.5l7 -10q4 -5 4 -15q0 -11 -8 -19.5t-18 -8.5 q-6 0 -11.5 4t-10.5 9l-7 8q-10 10 -27 19t-40 10q-11 0 -18.5 8t-7.5 19t4.5 21.5t4.5 20.5q0 24 -9 40t-9 22q0 11 7 19t17 8q22 0 34.5 -32t12.5 -61v-8q0 -5 -1 -10zM725.5 642q-7.5 -8 -18.5 -8q-12 0 -38 23t-39 57q-8 -2 -16 -3t-15 -1q-22 0 -52.5 10t-30.5 29 q0 10 8.5 18.5t19.5 8.5q9 0 19.5 -6t33.5 -6q20 0 33 6t19 6q11 0 18.5 -7t7.5 -16q2 -22 15.5 -41t28 -27t14.5 -24q0 -11 -7.5 -19zM1445.5 343q-7.5 -7 -16.5 -7q-10 0 -20.5 5t-29.5 5q-20 0 -35 -7.5t-22 -7.5q-25 0 -27 22.5t-24.5 46t-22.5 20.5q-15 6 -15 22 q0 12 8.5 19.5t17.5 7.5q8 0 11 -1q52 -38 68 -76q21 7 43 7q26 0 49 -7.5t23 -30.5q0 -11 -7.5 -18zM815.5 1207.5q-7.5 -6.5 -18.5 -6.5q-17 0 -42.5 24t-36.5 51q-21 -7 -44 -7q-35 0 -54 9.5t-19 26.5q0 11 8.5 18.5t17.5 7.5q4 0 12 -4t35 -4q25 0 37 7t17 8h6 q22 0 29 -31t33.5 -47.5t26.5 -34.5q0 -11 -7.5 -17.5zM763 1002q9 0 16 -8.5t7 -17.5q0 -14 -9.5 -20t-20.5 -6q-26 4 -49 16.5t-39 30.5q-24 -17 -47.5 -22.5t-39.5 -5.5q-14 0 -23.5 6t-9.5 20q0 11 7.5 19.5t18.5 8.5q2 0 3 -1t6 -1q32 0 54 20.5t33 20.5q17 0 25.5 -15 t27 -28t32.5 -15zM1807 714q31 -10 54.5 -34t23.5 -29l2 -6q0 -3 1 -6q0 -9 -7.5 -18t-18.5 -9q-17 0 -33.5 26t-59.5 31q-10 0 -17 7.5t-7 17.5q0 11 6.5 25t6.5 27q0 25 -7 34.5t-7 18.5q0 11 7.5 20t18.5 9q16 0 28 -23.5t12 -58.5v-16q0 -8 -3 -16zM1564 562 q32 -8 58 -30t26 -26q4 -7 4 -15q0 -11 -7 -18.5t-19 -7.5q-13 0 -22 11q0 5 -21.5 21t-50.5 16q-12 0 -19.5 7.5t-7.5 18.5t3.5 22t3.5 20q0 16 -2.5 26t-5.5 16l-6 11q-3 5 -3 11q0 11 8 19t19 8q19 0 31.5 -29.5t12.5 -61.5v-9q0 -5 -2 -10zM652 558q14 -12 14 -24 q0 -13 -9 -19t-17 -6q-17 0 -41 23t-36 58q-9 -2 -18.5 -3t-17.5 -1q-33 0 -48.5 7t-15.5 8q-15 6 -15 23q0 11 8.5 18.5t18.5 7.5q5 0 10 -2l9 -4q5 -2 13.5 -4t19.5 -2q23 0 32.5 6t21.5 6q25 0 30 -32.5t32 -52.5zM764 851q7 -7 7 -17q0 -13 -9 -19.5t-20 -6.5 q-18 0 -44 12.5t-45 34.5q-24 -17 -49.5 -22.5t-40.5 -5.5q-14 0 -22 6.5t-8 20.5q0 11 7.5 18.5t18.5 7.5h6q4 0 9 -1q35 0 51.5 21t34.5 21q14 -2 29.5 -26t54.5 -34q13 -3 20 -10zM1378 258q14 -7 14 -26q0 -11 -8.5 -18t-17.5 -7q-10 0 -19 5t-29 5q-22 0 -37 -8t-21 -8 q-22 0 -29.5 33t-35.5 52l-9 5q-15 7 -15 22q0 11 7 19t18 8q4 0 12 -2q5 0 30.5 -21t38.5 -53q11 3 21 4t20 1q24 0 41.5 -5.5t18.5 -5.5zM778 1145q9 -2 16 -9.5t7 -16.5q0 -14 -9.5 -20.5t-20.5 -6.5q-28 5 -50 17.5t-38 29.5q-23 -17 -46.5 -22t-40.5 -5q-14 0 -24 6 t-10 20q0 11 8 18.5t19 7.5q46 0 65 20.5t32 20.5q17 0 33.5 -26t50.5 -32zM1315 128q15 -6 15 -25q0 -12 -7.5 -19t-18.5 -7q-8 0 -18.5 5.5t-29.5 5.5q-20 0 -35.5 -8t-21.5 -8q-23 0 -27 25t-21.5 44.5t-25.5 19.5q-8 3 -11.5 9.5t-3.5 13.5q0 11 7 19.5t17 8.5q3 0 6 -1 l7 -2q-2 2 25 -17t43 -57q11 3 20.5 4t19.5 1q28 0 60 -12z" />
<glyph unicode="&#x26c4;" d="M2247 808l-258 -200q38 -73 56.5 -148.5t18.5 -149.5q0 -182 -102 -339.5t-277.5 -242.5t-396.5 -85t-397.5 85t-278 242.5t-101.5 339.5q0 81 22 162.5t67 159.5l-249 223q-18 18 -18 38q0 22 15.5 37t36.5 15q19 0 34 -12l101 -90l21 74q5 17 18.5 27.5t30.5 10.5 q23 0 37.5 -14.5t14.5 -36.5v-7q0 -3 -1 -8l-34 -124l52 -46q26 38 64.5 74.5t80.5 68.5q-57 73 -89 161.5t-32 187.5q0 241 180.5 415t435.5 174q253 0 434.5 -173.5t181.5 -415.5q0 -103 -34.5 -194.5t-95.5 -166.5q86 -68 148 -152l67 50l-21 130l-1 9q0 20 16 36t38 16 q18 0 32.5 -12t17.5 -32l11 -74l91 70q14 11 31 11q20 0 36 -15.5t16 -36.5q0 -27 -20 -42zM1908 483q-32 88 -85 156t-108 108t-55 103q0 47 36 88.5t65 114.5t29 158q0 192 -145.5 329t-345.5 137q-201 0 -346 -137t-145 -329q0 -82 28 -153.5t60.5 -111t32.5 -85.5 q0 -62 -58 -106.5t-110.5 -106t-89.5 -151t-37 -187.5q0 -153 89.5 -282t238.5 -195t326 -66q175 0 323.5 65t238.5 193.5t90 282.5q0 87 -32 175zM1431.5 985q-5.5 -6 -41.5 -9.5t-89 -3.5q-43 0 -79.5 3t-59 4.5t-22.5 42.5q0 13 2.5 24.5t13.5 11.5q41 0 81 -1t81 -1 q23 0 46 1t48 1q14 0 19.5 -6t5.5 -26q0 -35 -5.5 -41zM1548 1135.5q-23 -29.5 -55 -29.5q-33 0 -59 27t-26 69q0 43 23 72t55 29t58.5 -27t26.5 -69t-23 -71.5zM1166 1202q-2 -41 -26 -68.5t-58 -27.5q-31 0 -55 28t-24 68q0 42 23.5 71.5t58.5 29.5q34 0 57.5 -30 t23.5 -71z" />
<glyph unicode="&#x26c5;" d="M1542 1482q-8 2 -14 7.5t-6 14.5q0 6 3 9l100 206q7 12 19 12q18 0 22 -16l52 -200q2 -10 4.5 -16t2.5 -10q0 -11 -8 -16.5t-17 -5.5zM1864 1379q-5 5 -5 14q0 16 15 22l215 74q3 0 8 1q8 0 15 -7t7 -15q0 -5 -2 -11l-116 -197q-6 -11 -17 -11q-7 0 -11.5 1.5t-8.5 6.5z M2018 1079q0 8 6 14.5t16 6.5q7 0 11 -3l205 -100q13 -7 13 -19q0 -8 -5.5 -14t-11.5 -8l-220 -58q-3 0 -6 -1q-11 0 -17 8.5t-6 16.5zM1133 1553q-2 2 -2 7q0 8 6 15t16 7q7 0 11 -3l198 -115q11 -7 11 -22q0 -9 -9 -15l-122 -100q-5 -4 -13 -4q-18 0 -21 14zM2219 326 q-81 -81 -194 -81q-43 0 -85 14q-32 -114 -127.5 -188t-217.5 -74q-61 0 -116.5 19t-100.5 53q-59 -48 -132 -75t-156 -27q-132 0 -243 71.5t-166 188.5q-11 0 -30 -1q-152 0 -251.5 100.5t-99.5 238.5q0 120 83.5 222t208.5 114q34 101 121.5 165t196.5 64l24 7 q48 62 118.5 99.5t155.5 37.5q43 0 80 -10q51 67 127 106t164 39q150 0 258 -107.5t108 -257.5q0 -41 -8.5 -80t-24.5 -75q20 -25 34 -54.5t21 -62.5l47 9q21 4 46 4q95 0 167.5 -80t72.5 -185q0 -113 -81 -194zM2146 619.5q-36 47.5 -84 47.5q-26 0 -46.5 -6.5t-48.5 -6.5 q-36 0 -71 26t-46 74t-54.5 86t-105.5 38q-31 0 -71.5 -18t-66.5 -18q-41 0 -77 28t-44.5 99t-71.5 129t-151 58q-61 0 -102 -20t-80.5 -72.5t-103.5 -52.5l-12 1q-69 0 -128 -42.5t-79 -105t-97.5 -77.5t-132.5 -85.5t-55 -136.5q0 -92 66 -157t157 -65q6 0 22 1t30 1 q66 0 99.5 -74.5t114 -130t183.5 -55.5q66 0 121 22t89 51t78 29q42 0 92 -36t125 -36q70 0 134 41.5t96 130.5t115 89q22 0 42 -6.5t43 -6.5q64 0 110.5 46.5t46.5 110.5q0 52 -36 99.5z" />
<glyph unicode="&#x26ce;" d="M1773 476v-277q0 -46 33 -79t79 -33h97v-295h-97q-167 0 -287 120t-120 287v352l-360 93v-445q0 -46 33 -79t79 -33h97v-295h-97q-168 0 -287.5 120.5t-119.5 286.5v522q-23 6 -40 7l-23 1q-64 0 -98.5 -34.5t-34.5 -82.5q0 -50 36 -84l-204 -212q-62 59 -94 135t-32 161 q0 165 120 288.5t285 123.5q21 0 41.5 -1t43.5 -4v578h295v-648l360 -94v742h295v-821q19 -5 37.5 -6.5t25.5 -1.5q58 0 97.5 33t39.5 85q0 23 -9.5 44.5t-26.5 38.5l204 213q61 -60 93.5 -135.5t32.5 -160.5q0 -177 -126.5 -295.5t-310.5 -118.5q-12 0 -26 1.5t-31 2.5z " />
<glyph unicode="&#x26d4;" d="M2126.5 252.5q-128.5 -220.5 -349 -349t-477.5 -128.5t-477.5 128.5t-349 349t-128.5 477.5t128.5 477.5t349 349t477.5 128.5t477.5 -128.5t349 -349t128.5 -477.5t-128.5 -477.5zM2029 541v377h-1459v-377h1459z" />
<glyph unicode="&#x26ea;" d="M2173 461q12 -6 19.5 -18t7.5 -26v-101q0 -20 -15.5 -35.5t-35.5 -15.5q-6 0 -11 2l-11 4l-52 26v-555q0 -20 -15 -34.5t-35 -14.5h-1451q-21 0 -35 14.5t-14 34.5v555l-52 -26l-11 -4q-7 -2 -13 -2q-20 0 -34.5 14.5t-14.5 36.5v101q0 14 6.5 26t19.5 18l540 284v53 q0 13 4 22l255 556v317h-154v149h154v134h149v-134h153v-149h-153v-317l256 -556q2 -5 3 -11t1 -11v-53zM1452 -7v-200h82v956h-468v-956h86v200q0 63 45 106t104 43q63 0 107 -45t44 -104zM625 -207h341v727l-341 -173v-554zM1974 347l-340 173v-727h340v554zM1452 305 q0 -12 -9 -21t-21 -9h-240q-12 0 -21 9t-9 21v170q0 63 45 106t104 43q62 0 106.5 -45t44.5 -104v-170zM1211 334h62v81h-62v-81zM1393 415h-61v-81h61v81zM1273 475v85q-27 -10 -44.5 -32.5t-17.5 -52.5h62zM1392 475q0 29 -17 52t-43 33v-85h60z" />
<glyph unicode="&#x26f2;" d="M1817 565q35 0 60 -25t25 -59q0 -35 -25 -59t-60 -24q-20 -79 -70 -150t-116.5 -120t-116 -68t-49.5 -53q0 -39 47.5 -58.5t47.5 -56.5q0 -23 -17.5 -38.5t-43.5 -15.5h-403q-26 0 -44 15.5t-18 38.5q0 35 33 49t48 31t15 35q0 33 -49.5 52t-114.5 66.5t-115 117.5 t-73 155q-33 3 -55 27t-22 56q0 35 24.5 59.5t59.5 24.5h1032zM1065 743h478q26 0 45 -19t19 -47q0 -26 -19 -45t-45 -19h-478q-27 0 -46 19t-19 45q0 28 19 47t46 19zM1500 794h-393q0 80 57.5 138t139.5 58q81 0 138.5 -58t57.5 -138zM542.5 848q-13.5 16 -13.5 39l1 38 q0 25 -13 40t-36 15q-30 0 -59.5 -43t-66.5 -43q-19 0 -37 13t-18 39q0 14 3.5 30.5t3.5 32.5q0 17 -8.5 29t-25.5 12q-20 0 -52 -32t-54 -32q-23 0 -36.5 20.5t-13.5 51.5q0 73 123 196.5t254.5 184t264.5 60.5q134 0 251 -60t193.5 -184.5t76.5 -207.5q0 -16 -11 -16 q-6 0 -13.5 7.5t-14.5 18.5l-14 21q-29 39 -85 66t-117 27q-122 0 -204.5 -69t-130 -169.5t-108.5 -100.5q-26 0 -39.5 16zM2469 1007q-13 -21 -36 -21q-21 0 -53.5 32t-53.5 32q-17 0 -25.5 -12t-8.5 -29q0 -16 3.5 -32.5t3.5 -30.5q0 -26 -17.5 -39t-37.5 -13 q-36 0 -66.5 43t-59.5 43q-22 0 -35.5 -14t-13.5 -39l1 -40q0 -23 -13.5 -39t-39.5 -16q-59 0 -107.5 99.5t-135 169.5t-200.5 70q-65 0 -119.5 -28t-80.5 -65l-15 -21q-8 -11 -15 -18.5t-14 -7.5q-6 0 -8.5 5t-2.5 11q0 63 66 184.5t186.5 194.5t268.5 73q130 0 261.5 -60 t256 -183t124.5 -200q0 -28 -13 -49z" />
<glyph unicode="&#x26f3;" d="M2133.5 -296.5q-70.5 -71.5 -170.5 -71.5t-170.5 71.5t-70.5 169.5q0 99 70.5 170.5t170.5 71.5t170.5 -71.5t70.5 -170.5q0 -98 -70.5 -169.5zM1802 550q-48 -105 -142.5 -376t-268.5 -396t-436 -125q-330 0 -526.5 157t-196.5 436q0 212 154.5 320.5t441.5 108.5 q97 0 172.5 -8.5t136.5 -20.5l104 -20q46 -9 91 -9q67 0 105 17t65.5 45.5t92.5 146.5l202 368q4 6 11 7l16 3l300 648h243l-334 -728q3 -3 5.5 -7.5t2.5 -10.5v-4q0 -3 -1 -5zM1341 362q-139 76 -370 76q-212 0 -354 -87.5t-142 -244.5q0 -102 79 -192t190 -119.5 t218 -29.5q222 0 370 118.5t148 262.5q0 140 -139 216z" />
<glyph unicode="&#x26f5;" d="M2143 235q47 0 71.5 -23.5t24.5 -83.5q0 -55 -19.5 -165t-42.5 -157h-1471q-91 58 -218.5 183.5t-127.5 190.5q0 18 14 36.5t44 18.5h1725zM1159 374q60 132 83.5 283t23.5 306q0 200 -46 372.5t-136 321.5v6q523 -119 775 -422.5t252 -866.5h-952zM1025 374l-491 -50 q54 291 178.5 602t323.5 638h5z" />
<glyph unicode="&#x26fa;" d="M1359 1301q173 -25 319.5 -102t264.5 -189t223.5 -274t171.5 -336.5t66 -218.5q0 -38 -21.5 -68.5t-59.5 -42.5l-1072 -363q-10 -3 -19 -5t-20 -2q-22 0 -44 8l-898 364q-34 14 -54 42t-20 61q0 22 5 45t51.5 145.5t83 199t89.5 166t102.5 156t106 126.5t108 101.5 t118.5 81t118 60.5q85 34 155 44t108 10v397q0 25 17 42.5t42 17.5q20 0 35 -12t20 -29q17 -2 32.5 -6t107.5 -18l379 -58q68 -11 122.5 -21t54.5 -37q0 -9 -7 -16.5t-59.5 -29.5t-323.5 -114l-302 -104v-21zM1240 1192q-169 0 -348 -116t-327 -346.5t-251 -548.5l138 -56 q69 237 179 408t225 171q89 0 133 -84.5t44 -249.5q0 -85 -12 -186.5t-28 -189.5l-16 -80l176 -72q0 495 26.5 849.5t60.5 500.5zM2286 181l-27 81q-131 380 -363 631t-538 289q0 -11 -27 -170t-43.5 -460t-16.5 -714z" />
<glyph unicode="&#x26fd;" d="M2145.5 -125.5q-71.5 -81.5 -187.5 -81.5q-113 0 -182 50.5t-100 148t-31 326.5q0 189 -28.5 300.5t-72.5 155.5v-1047h-1162v1648q0 120 87.5 207.5t207.5 87.5h574q119 0 206 -86.5t87 -208.5v-430q126 -45 188.5 -198t62.5 -427q0 -141 8.5 -216t42.5 -119t113 -44 q53 0 81.5 37.5t28.5 103.5q0 151 -36 368.5t-79 364.5q-8 0 -23 -1q-149 0 -199 84t-50 237q0 32 7 62.5t28 57.5t49 38l58 23l32 13q14 6 20 11q2 5 3 11t1 12q0 61 -40.5 132.5t-82.5 112.5t-42 73q0 24 22 45.5t55 21.5q23 0 44 -12t39 -30l21 -23q66 -77 108.5 -170 t65 -182t50.5 -192t28 -172q0 -40 -11 -72t-38 -46q43 -147 80.5 -375t37.5 -389q0 -129 -71.5 -210.5zM1914 946.5q10 16.5 10 39.5q0 24 -8 54t-18 55l-11 24q-11 22 -26 31.5t-32 9.5q-20 0 -36.5 -14.5t-16.5 -41.5q0 -84 26.5 -129t75.5 -45q26 0 36 16.5zM1351 1304 h-774v-358h774v358z" />
<glyph unicode="&#x2702;" d="M2220.5 -334q-37.5 -38 -86.5 -38q-53 0 -93 13.5t-55 39.5l-15 22q-23 37 -58 46.5t-75 9.5l-57 -1q-115 0 -207.5 108.5t-92.5 279.5q0 45 4.5 80t4.5 69q0 47 -16 73t-43.5 45.5t-65 36.5t-54.5 31l-37 32l-34 27l-33 -27q-31 -24 -39 -32t-44 -24t-68.5 -37.5 t-50 -51.5t-17.5 -73q0 -34 4.5 -70t4.5 -87q0 -171 -99 -281t-261 -110q-145 0 -220 82.5t-75 212.5q0 90 45.5 166t111 124.5t202.5 91.5l25 8q71 20 90.5 91.5t97.5 131t149 154.5q-110 222 -194.5 493.5t-84.5 384.5q0 36 7 74t21 38q6 0 15 -13.5t18 -30.5l17 -34 q8 -16 11 -20l185 -304q92 -152 182 -307q90 155 182 307l185 304q3 3 26 50.5t34 47.5q14 0 21.5 -36.5t7.5 -75.5q0 -109 -86.5 -385t-193.5 -493q72 -96 143 -150t93 -109l11 -28q20 -46 38.5 -63.5t51.5 -26.5l25 -8q141 -44 203 -90.5t107 -117.5t45 -159q0 -41 -7 -84 t-7 -82q0 -25 18 -36.5t38 -13.5l22 -2q35 -3 48 -27t13 -50q0 -58 -37.5 -96zM832 236q-39 45 -103 45q-101 0 -167 -74.5t-66 -163.5q0 -75 44 -118.5t113 -43.5q94 0 156 69.5t62 173.5q0 67 -39 112zM1212.5 751q12.5 -16 32.5 -16q26 0 38.5 15.5t12.5 32.5 q0 18 -13.5 33.5t-37.5 15.5q-18 0 -31.5 -11.5t-13.5 -33.5q0 -20 12.5 -36zM1913.5 213q-79.5 68 -162.5 68q-65 0 -104 -46.5t-39 -110.5q0 -98 56 -174t135 -76q45 0 98.5 19.5t74.5 71t21 96.5q0 84 -79.5 152z" />
<glyph unicode="&#x2705;" d="M1056 150l-608 606l152 152l456 -452l943 951l152 -152z" />
<glyph unicode="&#x2708;" d="M2280 753q27 -40 51.5 -92.5t24.5 -86.5q0 -20 -10.5 -34t-35.5 -14q-33 0 -83.5 33.5t-118.5 104.5q-72 -31 -174.5 -65t-240.5 -66q95 -278 126.5 -412t31.5 -217q0 -87 -34 -132.5t-103 -45.5q-132 0 -303 202.5t-320 521.5q-46 -3 -88 -4t-84 -1q-329 0 -518 75.5 t-189 188.5q0 55 50 104.5t118 82.5t78 33q7 -55 42 -105.5t91 -92.5l28 -21q23 -19 47.5 -32.5t43.5 -13.5q17 0 47.5 32t30.5 46q0 28 -40.5 47.5t-104 87t-72.5 160.5q51 32 122.5 54.5t173.5 22.5q-18 112 -18 211q0 192 63.5 308t168.5 116q97 0 216 -183t231 -522 q125 -22 257 -48.5t280 -58.5q67 73 138 126t132 53q21 0 36.5 -10.5t15.5 -33.5q0 -21 -17 -60t-47 -90l-30 -50q17 -14 24 -28t7 -25q0 -22 -13.5 -37.5t-30.5 -28.5zM928.5 732q-14.5 9 -31.5 9q-25 0 -46.5 -29t-21.5 -53q0 -22 12.5 -31t32.5 -9q32 0 50.5 35.5 t18.5 49.5q0 19 -14.5 28zM1057 635.5q23 26.5 23 53.5q0 20 -11.5 29t-28.5 9q-24 0 -45.5 -27.5t-21.5 -57.5q0 -14 8.5 -23.5t24.5 -9.5q28 0 51 26.5z" />
<glyph unicode="&#x2709;" d="M1299 593l793 394v-829h-1585v829zM2092 1334v-221l-793 -393l-792 393v221h1585z" />
<glyph unicode="&#x270a;" d="M2164.5 286.5q-120.5 -200.5 -342 -306t-522.5 -105.5q-167 0 -304.5 41t-243 112.5t-186 174.5t-121 224t-85.5 255.5t-45 253.5q0 137 69.5 220t196.5 83q35 0 44 5t32.5 58.5t83.5 95.5t151 42q39 0 69.5 -8t50.5 -8q31 0 56 42t83 78t130 36q67 0 120.5 -29t57.5 -29 q12 0 35 20.5t73 45.5t125 25q92 0 161 -51t96 -111.5t37.5 -175.5t60 -127.5t116.5 -74t94.5 -146.5t27.5 -204q0 -236 -120.5 -436.5zM1551.5 1258q2.5 -40 7.5 -91q20 5 44 6t49 1q58 0 105.5 -4.5t95.5 -11.5l-5 160q-2 72 -46.5 113.5t-122.5 41.5q-59 0 -94.5 -47 t-35.5 -109q0 -19 2.5 -59zM1150 1296l2 -14q2 -17 7.5 -50.5t13.5 -74.5l16 -88q0 -10 30.5 -154t133.5 -144q22 0 36.5 4.5t25.5 14.5l14 12q-33 29 -48 69.5t-15 90.5q0 73 23 116t70 66l-19 159q-9 65 -50.5 102.5t-105.5 37.5q-66 0 -100.5 -35t-34.5 -98q0 -8 1 -14z M761 1147l2 -15q8 -40 38.5 -135.5t70 -200.5t129.5 -105q48 0 86 30t38 76q0 7 -1 13l-2 12l-80 374q-13 61 -53.5 89t-88.5 28q-68 0 -104 -42.5t-36 -108.5q0 -8 1 -15zM741.5 614.5q40.5 29.5 40.5 74.5q0 6 -1 14t-3 16l-89 292q-17 53 -50.5 75t-74.5 22 q-63 0 -96.5 -38.5t-33.5 -109.5q0 -46 42.5 -152t72.5 -164.5t100 -58.5q52 0 92.5 29.5zM2041 987.5q-91 68.5 -177 68.5q-32 2 -102.5 11.5t-121.5 9.5q-93 0 -136.5 -32t-43.5 -94q0 -86 89 -137t169 -51q11 0 16 2q-6 -11 -17 -69t-11 -94l-81 -24q-72 -21 -142.5 -58 t-113 -88.5t-69.5 -51.5q-33 0 -33 34q0 41 38.5 117t42.5 78t4 8q0 7 -12 10l-30 5q-18 3 -37 7.5t-32 16.5q-66 -63 -105.5 -82t-75.5 -19q-40 0 -87 13.5t-63 26.5q-12 -43 -56 -78t-83 -35q-31 0 -60 4.5t-51 4.5q-26 0 -35.5 -12.5t-9.5 -35.5q0 -83 98.5 -197 t249.5 -176.5t340 -62.5q385 0 607 202t222 510q0 200 -91 268.5z" />
<glyph unicode="&#x270b;" d="M2400 529.5q-18 -48.5 -43 -78.5l-47 -59l-56 -74q-32 -43 -69.5 -90t-73.5 -87l-115 -133q-135 -156 -220.5 -223t-193 -108t-237.5 -41q-180 0 -341 62.5t-284 194t-177.5 327t-92.5 283.5l-13 29l-87 181q-25 51 -49 103l-45 97q-16 33 -45.5 101t-29.5 142 q0 118 77.5 202.5t214.5 84.5q7 116 82 193.5t197 77.5q46 0 91 -14q32 81 98 130.5t155 49.5q53 0 103.5 -17.5t89.5 -49.5q77 83 203 83q119 0 198.5 -77t88.5 -199.5t14 -420.5l2 -181q0 -67 5.5 -173t21.5 -106q7 0 49 52t109.5 91.5t155.5 39.5q114 0 198 -85t84 -207 q0 -52 -18 -100.5zM1034.5 1282q59.5 -246 93.5 -356q51 13 98 18t104 10l-51 349l-20 130q-10 61 -16 107l-10 66q-7 52 -45 85t-89 33q-58 0 -91 -45.5t-33 -117.5q0 -33 59.5 -279zM632 1372.5q4 -17.5 48 -137.5l128 -357l30 -82q47 32 97.5 58t103.5 45q-22 75 -47 163 l-111 396q-14 52 -50.5 75t-78.5 23q-60 0 -92 -38t-32 -107q0 -21 4 -38.5zM2224.5 723.5q-37.5 42.5 -85.5 42.5q-39 0 -68.5 -11.5t-47.5 -29.5l-21 -21q-7 -7 -24 -28l-41 -52q-50 -64 -107 -141t-141 -77q-20 0 -39.5 2t-41.5 2q-26 0 -44.5 -4t-32.5 -10l-23 -9 q-11 -5 -24 -5q-11 0 -22.5 7t-11.5 21q0 27 65 54t110 28.5t45 65.5q0 67 -9 140l-17 136l-2 163q0 61 -3 136l-4 155q-2 80 -5 161l-6 155q-3 65 -39.5 100.5t-99.5 35.5q-58 0 -90.5 -45t-32.5 -107q0 -12 2.5 -52t7.5 -98l10 -125q7 -94 17 -204t18 -165l13 -2 q15 -2 49 -13.5t34 -28.5q0 -14 -22.5 -22t-42.5 -8q-180 -19 -349 -72t-318 -131l-19 -12q-11 -7 -22 -7t-16.5 6.5t-5.5 14.5q0 12 12 29.5t25 30.5l14 14q-28 65 -56.5 134.5t-58.5 148.5l-41 108h-1l-24 65q-16 43 -51 65.5t-75 22.5q-56 0 -90 -36t-34 -95 q0 -17 4 -40.5t23 -66.5l32 -70q19 -42 43 -91l47 -100q24 -51 48 -99l42 -86l30 -71q23 -52 46.5 -132.5t39.5 -132t35 -91t39.5 -74t43 -62.5t42.5 -48.5t56 -47.5q161 -123 427 -123q116 0 212.5 32t164.5 86.5t121 128t74 96.5l85 93l25 28l65 81q32 40 60 74l48 59 q7 8 39 47t32 84q0 51 -37.5 93.5z" />
<glyph unicode="&#x270c;" d="M1979 -74.5q-122 -159.5 -299.5 -231t-383.5 -71.5q-58 0 -116 4.5t-112.5 15.5t-94.5 24.5t-68.5 27.5t-60 37.5t-65.5 63t-64 96t-45 110.5t-13.5 53t-26 38.5t-60 95t-55.5 107.5t-34 99.5t-11 92.5q0 100 74.5 172.5t180.5 76.5q6 103 69 159t131 56l-41 116 q-36 98 -62.5 160t-48 159t-21.5 161q0 132 80 213t208 81q122 0 200 -79.5t117 -220.5l21 -77q9 -31 17 -70l29 -162q5 -26 16.5 -82t21.5 -56q9 0 23.5 122t21.5 208t39.5 180t105.5 157t170 63q145 0 226.5 -83.5t81.5 -206.5q0 -77 -16.5 -163.5t-37.5 -152.5l-18 -56 l-60 -176q-27 -81 -42.5 -146.5t-26.5 -101t-11 -67.5q0 -49 44 -87t91.5 -131t47.5 -202q0 -167 -122 -326.5zM1253 751.5q60 32.5 143 32.5q53 0 111 -12t112 -32l67 -25q37 -14 74 -30q5 7 11 33.5t13 62.5l13 70q7 35 15 58l41 118q55 161 92 290t37 203q0 71 -40.5 114 t-103.5 43q-106 0 -151 -121t-67 -292l-16 -135l-17 -119q-10 -75 -37 -121t-79 -46q-85 0 -113.5 116.5t-63 281t-83 304.5t-145.5 140q-81 0 -122 -41t-41 -126q0 -94 78.5 -301.5t104.5 -257.5t51.5 -145t47.5 -95q8 0 68 32.5zM904 516q55 -116 90 -177.5t98 -61.5 q42 0 75.5 28.5t33.5 66.5q0 7 -1 14.5t-4 16.5l-107 312q-16 47 -47.5 67t-68.5 20q-56 0 -90 -31.5t-34 -92.5q0 -46 55 -162zM880 178q39 27 39 66q0 15 -8 36l-43 104l-32 72h-1q0 3 -29.5 70t-102.5 67q-52 0 -81.5 -30t-29.5 -87q0 -48 24.5 -96t50.5 -96t54 -90.5 t78 -42.5q42 0 81 27zM1879 465q-79 89 -219 145t-242 56q-67 0 -118.5 -37t-51.5 -99q0 -65 62.5 -111.5t200.5 -90t138 -117.5q0 -15 -4.5 -26t-12.5 -11q-11 0 -78 29t-122 29q-71 0 -116.5 -61.5t-45.5 -151.5l1 -18v-28q0 -14 -2.5 -25.5t-9.5 -11.5q-22 0 -40 59.5 t-18 103.5q0 23 4 52t9 48q-22 -22 -55.5 -36.5t-68.5 -14.5q-25 0 -47.5 7.5t-32.5 13.5q-51 -73 -87 -91.5t-94 -21.5q22 -102 41.5 -134.5t65.5 -68t134.5 -61.5t204.5 -26q267 0 475 143.5t208 360.5q0 106 -79 195z" />
<glyph unicode="&#x270f;" d="M2407.5 1094q-17.5 -68 -55.5 -103l-1112 -1007l-31 -26q-2 -2 -18.5 -12t-242.5 -77l-144 -43q-218 -63 -379 -105t-192 -44q-25 0 -41 16.5t-16 46.5q0 14 12.5 64t35.5 121l203 632q17 52 51 91t85 85l1082 992q40 37 111 57t186 20q108 0 190.5 -80.5t159 -150 t105 -113.5t28.5 -211q0 -85 -17.5 -153zM2271 1329l-1131 -1037q6 -27 10.5 -88.5t4.5 -123.5l1070 973q21 20 42 44t21 49q0 45 -7 90t-10 93zM1911 1661q-84 -5 -123.5 -11t-90.5 -52l-1055 -967q35 -5 75 -5t76 -13zM839 562v-37q0 -28 3.5 -79t3.5 -69q0 -9 34.5 -14.5 t61.5 -5.5q38 0 75.5 -6.5t68.5 -14.5l1155 1058l-62 64l-68 67q-34 33 -65.5 63t-56.5 52zM637 515l-36 2q-17 0 -28 1h-13l-170 -511q39 -20 65.5 -47.5t49.5 -65.5l537 132q2 21 2 45.5t1 49.5q0 72 -8.5 92t-98.5 23h-25q-79 0 -108.5 11.5t-43.5 25t-21 66.5l-15 125 q-4 27 -9.5 37t-78.5 14z" />
<glyph unicode="&#x2712;" d="M2414 1537.5q-11 -43.5 -31 -88.5q-20 12 -44 28t-47 36l-41 36q-74 63 -144.5 142.5t-99.5 132.5q45 20 88.5 31.5t85.5 11.5q102 0 173 -70.5t71 -173.5q0 -42 -11 -85.5zM2248 1408q25 -20 46.5 -33.5t39.5 -21.5q-45 -75 -102.5 -145t-119.5 -132l-355 -355 q-4 -4 -13 -4q-18 0 -49 16.5t-73 48.5zM1501 884q-105 103 -165.5 185t-60.5 117q0 9 6 13l353 354q63 63 134 120t144 102q22 -48 78 -116.5t136 -148.5zM1542 702l28 -19q32 -23 54.5 -34t39.5 -11q3 0 7 1t6 3v-2l-74 -74q-6 -5 -14 -5t-16 2.5t-18 7.5l-484 -484 q-4 -4 -12 -4q-14 0 -35.5 10.5t-49.5 30.5q-9 -26 -15 -83t-63.5 -153.5t-191.5 -154t-234.5 -70t-180.5 -29.5l-54 -11q-23 -5 -27 -5q-11 0 -21.5 6t-10.5 20q0 4 5 26l11 53h-1q22 103 30 173t38.5 164.5t81 172t132 119t131.5 47t79 15.5q-20 28 -30.5 50.5t-10.5 36.5 q0 6 4 12l484 482q-5 11 -7.5 19t-2.5 16q0 7 6 13l72 74l2 -1q-2 -3 -2 -11q0 -36 60 -116t164 -184l-65 -65l121 -102zM869 56l5 36q3 19 8.5 40t17.5 48q-41 34 -83.5 77t-77.5 83q-41 -19 -94 -24.5t-111 -34t-87.5 -58.5t-61 -90.5t-55.5 -156.5t-34 -193l206 207 q-8 19 -8 39q0 39 28.5 66.5t64.5 27.5q39 0 67 -28t28 -67q0 -36 -28 -64.5t-65 -28.5q-21 0 -40 8l-207 -207q39 7 81 11t82.5 14.5t80.5 23t77.5 29.5t74 39t61.5 53.5t44.5 71.5t25.5 78z" />
<glyph unicode="&#x2714;" d="M1057 149l-608 606l152 152l456 -452l943 951l152 -152z" />
<glyph unicode="&#x2716;" d="M2021 259q8 -8 12 -18.5t4 -20.5q0 -24 -16 -40l-169 -167q-20 -18 -40 -18q-24 0 -39 18l-473 472l-473 -472q-9 -10 -19.5 -14t-21.5 -4q-25 0 -39 18l-168 167q-16 16 -16 40q0 10 4 20.5t12 18.5l473 473l-473 473q-16 16 -16 39q0 11 4 21.5t12 18.5l168 169 q15 16 39 16q11 0 21.5 -4t19.5 -12l473 -473l473 473q16 16 39 16q11 0 21.5 -4t18.5 -12l169 -169q8 -8 12 -18.5t4 -21.5q0 -23 -16 -39l-474 -473z" />
<glyph unicode="&#x2728;" d="M908 236q-77 202 -157 323t-190.5 230.5t-266.5 202.5l-112 67l112 68q209 124 363.5 305t252.5 451q100 -275 251.5 -454t360.5 -302l114 -68l-114 -67q-209 -125 -361.5 -304t-252.5 -452zM479 1059q136 -98 243.5 -212.5t185.5 -240.5q74 118 182.5 235.5t247.5 217.5 q-132 93 -242 211t-188 243q-82 -133 -191.5 -248t-237.5 -206zM2418 584l-126 -62q-130 -63 -227.5 -155t-172.5 -264q-62 154 -158 250.5t-241 168.5l-125 62l125 62q138 67 235 165.5t165 253.5q66 -153 161.5 -251.5t237.5 -167.5zM1893 377q34 44 90.5 99t139.5 108 q-83 53 -139.5 108t-90.5 99q-35 -44 -92 -99.5t-139 -107.5q82 -52 139 -107.5t92 -99.5zM1295 553q64 -188 141.5 -285.5t189.5 -167.5l95 -58l-95 -59q-111 -69 -188 -166t-143 -288q-63 183 -140 282.5t-192 171.5l-95 59l95 58q112 70 191 170.5t141 282.5zM1295 -149 q28 41 71.5 91.5t103.5 99.5q-59 47 -102.5 96.5t-72.5 92.5q-29 -43 -73 -92t-104 -97q61 -49 105 -99.5t72 -91.5z" />
<glyph unicode="&#x2733;" d="M2307.5 619q-48.5 -35 -142.5 -35q-14 0 -56.5 4t-105.5 11l-288 31l-282 32l104 -82l238 -190l188 -152q78 -65 99.5 -109t21.5 -76q0 -53 -37.5 -86.5t-83.5 -33.5q-80 0 -161.5 97.5t-87.5 105.5l-87 107l-189 237q-46 57 -83 104l16 -132l17 -150l31 -288 q6 -63 10 -105.5t4 -55.5q0 -91 -34.5 -142.5t-98.5 -51.5t-98.5 51t-34.5 143q0 13 4 55.5t11 105.5l31 288l32 282l-272 -341q-47 -59 -86 -107l-67 -81q-58 -71 -102 -96.5t-82 -25.5q-49 0 -84 37.5t-35 83.5q0 40 26 84t95 100l81 66l226 182l118 94l104 82l-282 -32 l-288 -31q-63 -7 -105.5 -11t-55.5 -4q-95 0 -144 35t-49 98t49 98t144 35q13 0 55.5 -4t105.5 -10l288 -31l150 -17l132 -16q-47 36 -104 82l-237 189q-59 47 -107 87l-81 67q-73 59 -97 102.5t-24 80.5q0 45 34 83t83 38q39 0 84.5 -27t85.5 -76l83 -99l86 -107l272 -342 l-32 283l-31 288q-7 62 -11 104.5t-4 55.5q0 94 34.5 144t98.5 50t98.5 -50t34.5 -144q0 -13 -4 -55.5t-10 -104.5l-31 -288l-17 -150l-16 -133l272 342l87 107q6 7 87 104.5t164 97.5q46 0 82.5 -34.5t36.5 -86.5q0 -32 -21.5 -75.5t-99.5 -107.5l-82 -67q-48 -40 -106 -87 l-238 -189l-104 -82l132 16l150 17l288 31q63 6 105.5 10t56.5 4q94 0 142.5 -35t48.5 -98t-48.5 -98z" />
<glyph unicode="&#x2734;" d="M2402 726.5q-8 -7.5 -18 -7.5q-229 0 -435 -24.5t-360 -70.5q91 -160 206.5 -304.5t200 -232.5t90.5 -93.5t6 -15.5q0 -8 -7 -16.5t-19 -8.5q-10 0 -15.5 5.5t-104.5 100t-236 201.5t-291 195q-50 -179 -71.5 -381.5t-21.5 -412.5q0 -11 -7.5 -18.5t-18.5 -7.5t-18.5 7.5 t-7.5 18.5q0 226 -24 429.5t-71 364.5q-146 -83 -284 -190.5t-239.5 -204t-107 -102t-15.5 -5.5q-11 0 -18 7t-7 18q0 12 6 17t101.5 105t203 238.5t191.5 285.5q-161 47 -364.5 71t-429.5 24q-11 0 -18.5 7.5t-7.5 18.5t7.5 18.5t18.5 7.5q226 0 429.5 24t364.5 71 q-87 153 -196.5 292t-201.5 235t-98 101t-6 17q0 11 7 18.5t18 7.5q5 0 9 -2l9 -5q154 -154 312 -279.5t316 -215.5q46 154 70.5 359t24.5 435q0 10 7.5 18t18.5 8t18.5 -8t7.5 -18q0 -214 22.5 -418.5t70.5 -375.5q161 92 299.5 202t230 196.5t98.5 95t19 8.5 q11 0 18.5 -7.5t7.5 -18.5q0 -16 -31 -41.5t-192 -210t-280 -393.5q154 -46 360 -70.5t435 -24.5q10 0 18 -7.5t8 -18.5t-8 -18.5z" />
<glyph unicode="&#x2744;" d="M2291 797q9 0 15.5 -6t6.5 -16v-93q0 -9 -6.5 -15.5t-15.5 -6.5h-215l168 -168q7 -7 7 -17q0 -8 -7 -15l-66 -65q-6 -7 -15 -7t-16 7l-266 265h-415l293 -293h377q9 0 15.5 -6t6.5 -17v-92q0 -9 -6.5 -15.5t-15.5 -6.5h-238l152 -152q5 -6 5 -16q0 -5 -1 -9t-4 -6 l-66 -66q-3 -5 -7.5 -6t-9.5 -1q-10 0 -15 7l-152 152v-240q0 -8 -7 -15t-15 -7h-93q-9 0 -16 6.5t-7 15.5v377l-293 293v-415l265 -266q6 -6 6 -16t-6 -15l-65 -66q-7 -7 -15 -7q-10 0 -17 7l-168 168v-215q0 -9 -6.5 -15.5t-15.5 -6.5h-93q-10 0 -16 6.5t-6 15.5v215 l-170 -168q-7 -7 -15 -7q-12 0 -15 7l-67 66q-7 6 -7 15t7 16l267 266v415l-295 -293v-377q0 -9 -6 -15.5t-16 -6.5h-93q-9 0 -15.5 7t-6.5 15v240l-152 -152q-6 -7 -16 -7t-15 7l-66 66q-7 5 -7 15t7 16l152 152h-240q-9 0 -15.5 5.5t-6.5 16.5v92q0 11 6.5 17t15.5 6h377 l293 293h-415l-266 -265q-6 -7 -15 -7t-16 7l-66 65q-7 7 -7 15q0 10 7 17l170 168h-217q-9 0 -15.5 6.5t-6.5 15.5v93q0 10 6.5 16t15.5 6h217l-170 170q-7 7 -7 15q0 10 7 17l66 65q5 6 15 6q11 0 16 -6l266 -267h415l-293 295h-377q-8 0 -15 7t-7 15v93q0 9 6.5 15.5 t15.5 6.5h240l-152 152q-7 5 -7 16q0 10 7 15l66 66q7 7 15 7q9 0 16 -7l152 -152v240q0 8 6.5 15t15.5 7h93q10 0 16 -6.5t6 -15.5v-377l295 -293v415l-267 266q-7 6 -7 16q0 9 7 15l67 66q3 6 13 6q11 0 17 -6l170 -168v215q0 9 6 15.5t16 6.5h93q9 0 15.5 -6.5t6.5 -15.5 v-215l168 168q7 7 17 7q8 0 15 -7l65 -66q6 -5 6 -15q0 -11 -6 -16l-265 -266v-415l293 293v377q0 9 7 15.5t16 6.5h93q8 0 15 -7t7 -15v-240l152 152q7 7 15 7q5 0 9 -2l8 -5l66 -66q3 -2 4 -6t1 -9q0 -11 -5 -16l-152 -152h238q22 0 22 -22v-93q0 -10 -6.5 -16t-15.5 -6 h-377l-293 -295h415l266 267q5 6 16 6q10 0 15 -6l66 -65q7 -7 7 -17q0 -8 -7 -15l-168 -170h215z" />
<glyph unicode="&#x2747;" d="M1413.5 819.5q42.5 -41.5 42.5 -101.5q0 -64 -43.5 -105t-101.5 -41q-63 0 -105.5 45t-42.5 105q0 55 44 97t104 42t102.5 -41.5zM1153.5 1748.5q50.5 76.5 147.5 76.5q90 0 142.5 -80.5t52.5 -205.5q0 -99 -17 -206t-57.5 -261t-116.5 -154q-51 0 -90 83t-75.5 250 t-36.5 284q0 137 50.5 213.5zM1469 184q14 -69 20.5 -141.5t6.5 -131.5q0 -123 -51.5 -204.5t-143.5 -81.5q-97 0 -147.5 76.5t-50.5 213.5q0 75 14.5 166.5t33.5 164.5l20 78q24 92 58.5 150t75.5 58q47 0 84.5 -74.5t65.5 -205.5zM2318 580q-82 -52 -208 -52 q-58 0 -141.5 8.5t-198.5 36.5l-70 16q-121 29 -164.5 58.5t-43.5 70.5q0 81 234.5 142t383.5 61q132 0 211 -50.5t79 -146.5q0 -92 -82 -144zM1027 633.5q-78 -37.5 -198 -62.5l-70 -15q-67 -14 -139 -21t-130 -7q-124 0 -207 51.5t-83 142.5q0 99 74 149t215 50 q129 0 304 -41.5t243.5 -77t68.5 -84.5q0 -47 -78 -84.5zM1589.5 1021.5q1.5 7.5 107.5 153.5l83 114q81 112 155.5 210.5t154.5 98.5q46 0 81 -35t35 -79q0 -77 -96.5 -150.5t-100.5 -76.5l-372 -273q-8 -6 -18 -6q-14 0 -22.5 10t-8.5 22q0 4 1.5 11.5zM428.5 1563 q34.5 35 79.5 35q48 0 83.5 -25t66.5 -65l43 -57l56 -76l125 -172l100 -140q14 -20 22 -31t8 -22q0 -12 -9.5 -22t-21.5 -10q-11 0 -18 6l-371 273q-8 6 -103 78.5t-95 149.5q0 43 34.5 78zM2161 69q18 -21 31.5 -49.5t13.5 -53.5q0 -44 -35 -78t-81 -34q-81 0 -151.5 93.5 t-75.5 101.5l-83 112q-44 60 -82 114l-68 95q-34 47 -38 53.5t-4 16.5q0 12 9.5 22t21.5 10q2 0 8 -1.5t106 -74.5l164 -120l160 -119q29 -23 54.5 -42.5t31.5 -25.5zM1002.5 462q9.5 -10 9.5 -22q0 -11 -8 -22t-22 -30l-100 -140l-125 -173l-56 -76l-43 -57 q-36 -46 -74.5 -67t-75.5 -21q-44 0 -79 33.5t-35 77.5q0 33 23 72.5t56 65.5l70 54l161 119l164 120q99 73 104.5 74.5t8.5 1.5q12 0 21.5 -10z" />
<glyph unicode="&#x274c;" d="M2021 259q8 -8 12 -18.5t4 -20.5q0 -24 -16 -40l-169 -167q-20 -18 -40 -18q-24 0 -39 18l-473 472l-473 -472q-9 -10 -19.5 -14t-21.5 -4q-25 0 -39 18l-168 167q-16 16 -16 40q0 10 4 20.5t12 18.5l473 473l-473 473q-16 16 -16 39q0 11 4 21.5t12 18.5l168 169 q15 16 39 16q11 0 21.5 -4t19.5 -12l473 -473l473 473q16 16 39 16q11 0 21.5 -4t18.5 -12l169 -169q8 -8 12 -18.5t4 -21.5q0 -23 -16 -39l-474 -473z" />
<glyph unicode="&#x274e;" d="M2248 1738q23 0 40 -17.5t17 -41.5v-1893q0 -23 -17 -40t-40 -17h-1893q-24 0 -41.5 17t-17.5 40v1893q0 24 17.5 41.5t41.5 17.5h1893zM1548 733l474 472q16 16 16 40q0 11 -4 21.5t-12 18.5l-169 168q-17 17 -39 17q-23 0 -40 -17l-473 -472l-472 472q-20 17 -42 17 t-39 -17l-167 -168q-17 -17 -17 -40t17 -40l472 -472l-472 -473q-17 -17 -17 -40q0 -22 17 -39l167 -169q16 -16 39 -16t42 16l472 474l473 -474q16 -16 40 -16q10 0 20.5 4t18.5 12l169 169q16 16 16 39q0 11 -4 21.5t-12 18.5z" />
<glyph unicode="&#x2753;" d="M1077 447v86q0 131 64.5 223t194 186t129.5 228q0 66 -45.5 109.5t-137.5 43.5q-80 0 -173.5 -34t-191.5 -82l-120 258q134 74 260 110t229 36q242 0 379 -114t137 -311q0 -122 -49 -211.5t-149.5 -170.5t-159.5 -135t-59 -153v-69h-308zM1393.5 194q54.5 -51 54.5 -147 t-56.5 -147.5t-146.5 -51.5q-97 0 -151.5 52t-54.5 147t52 146.5t154 51.5q94 0 148.5 -51z" />
<glyph unicode="&#x2754;" d="M1070 225.5q65 62.5 179 62.5q112 0 178.5 -61.5t66.5 -175.5q0 -110 -66 -174.5t-176 -64.5q-113 0 -180 62.5t-67 176.5q0 112 65 174.5zM1126.5 -68.5q41.5 -41.5 122.5 -41.5q77 0 121.5 41t44.5 120q0 78 -41.5 118.5t-121.5 40.5q-86 0 -126.5 -39.5t-40.5 -119.5 q0 -78 41.5 -119.5zM1431 410h-387v126q0 103 40.5 189.5t118 153.5t153 130t75.5 165q0 50 -33.5 82t-108.5 32q-75 -2 -165 -34t-183 -78l-36 -18l-152 326l32 18q123 70 256.5 111t251.5 41q254 0 404.5 -124t150.5 -339q0 -95 -26.5 -170t-82 -140.5t-157.5 -146.5 t-126.5 -115.5t-24.5 -99.5v-109zM1123 489h229v30q0 93 42.5 147t160 146.5t165.5 174.5t48 204q0 183 -126 283t-349 100q-105 0 -222 -34.5t-215 -87.5l86 -189q97 45 183 74t164 29q102 0 161 -51.5t59 -140.5t-38 -150.5t-146 -143t-155 -160t-47 -184.5v-47z" />
<glyph unicode="&#x2755;" d="M1173 535q-22 0 -38.5 15.5t-18.5 35.5l-68 993q0 26 17 42t39 16h392q25 0 40.5 -18t15.5 -40l-68 -993q-2 -20 -19 -35.5t-39 -15.5h-253zM1193 615h212l66 942h-344zM1122 230.5q66 61.5 177 61.5t178 -62.5t67 -174.5q0 -111 -66 -175t-177 -64q-113 0 -179 62.5 t-66 176.5t66 175.5zM1176 -66q42 -40 123 -40t124 41.5t43 119.5q0 83 -44 120t-121 37q-86 0 -126.5 -40t-40.5 -117q0 -81 42 -121z" />
<glyph unicode="&#x2757;" d="M1173 578q-6 0 -11.5 4t-5.5 10l-70 993q0 5 5 10t13 5h392q5 0 11 -4.5t6 -10.5l-69 -993q-2 -14 -18 -14h-253zM1451.5 203q52.5 -52 52.5 -147t-53 -146t-149 -51q-99 0 -153 51t-54 146q0 101 54 150t153 49q97 0 149.5 -52z" />
<glyph unicode="&#x2764;" d="M2275.5 839q-36.5 -97 -96.5 -173.5t-146 -146.5t-291.5 -201.5t-290 -217.5t-104.5 -129t-48 -43q-7 0 -16.5 3t-43 59t-122 137.5t-270 196.5t-281.5 196t-158 162t-89 172.5t-31 204.5q0 197 153.5 341t372.5 144q159 0 291.5 -80t194.5 -216q62 135 193.5 215.5 t291.5 80.5q218 0 372.5 -143.5t154.5 -341.5q0 -123 -36.5 -220z" />
<glyph unicode="&#x2795;" d="M2200 613q0 -24 -16.5 -40t-39.5 -16h-614q-23 0 -39.5 -16.5t-16.5 -39.5v-613q0 -23 -16.5 -40t-39.5 -17h-237q-24 0 -40 17t-16 40v613q0 23 -16.5 39.5t-40.5 16.5h-612q-23 0 -39.5 16t-16.5 40v237q0 24 16.5 40t39.5 16h612q24 0 40.5 16.5t16.5 39.5v613 q0 23 16 40t40 17h237q23 0 39.5 -17t16.5 -40v-613q0 -23 16.5 -39.5t39.5 -16.5h614q23 0 39.5 -16t16.5 -40v-237z" />
<glyph unicode="&#x2796;" d="M2144 908q23 0 39.5 -16.5t16.5 -39.5v-237q0 -24 -16.5 -40t-39.5 -16h-1688q-23 0 -39.5 16t-16.5 40v237q0 23 16.5 39.5t39.5 16.5h1688z" />
<glyph unicode="&#x2797;" d="M1147 1552q63 65 153 65q91 0 154.5 -64.5t63.5 -153.5q0 -90 -64 -154t-154 -64q-89 0 -152.5 64t-63.5 154q0 88 63 153zM1454.5 -86.5q-63.5 -64.5 -154.5 -64.5q-90 0 -153 65t-63 153q0 90 64.5 154t151.5 64q88 0 153 -64t65 -154q0 -89 -63.5 -153.5zM2144 907 q23 0 39.5 -16.5t16.5 -39.5v-237q0 -23 -16.5 -39.5t-39.5 -16.5h-1688q-23 0 -39.5 16.5t-16.5 39.5v237q0 23 16.5 39.5t39.5 16.5h1688z" />
<glyph unicode="&#x27a1;" d="M2147 732l-877 -643v402h-818v479h818v406z" />
<glyph unicode="&#x27b0;" d="M1300 1299q150 57 291 79t265 22q134 0 246.5 -18.5t184.5 -37.5v-277q-8 8 -138.5 37.5t-293.5 29.5q-58 0 -119.5 -4.5t-127.5 -17.5q105 -97 158 -221t53 -269q0 -241 -142.5 -391t-374.5 -150q-233 0 -377 149t-144 392q0 145 53.5 269t156.5 221q-66 13 -127.5 17.5 t-119.5 4.5q-163 0 -294 -30t-138 -37v277q100 27 207 41.5t224 14.5q124 0 266 -22t291 -79zM1300 1010q-256 -134 -256 -388q0 -125 69.5 -201t185.5 -76t186 73.5t70 202.5q0 255 -255 389z" />
<glyph unicode="&#x27bf;" d="M1845 1254q142 54 275.5 74t250.5 20h38q18 0 35 -1v-256q-17 0 -35 1h-35q-56 0 -114.5 -4.5t-121.5 -17.5q100 -94 151 -212t51 -258q0 -223 -139 -370.5t-360 -147.5q-218 0 -359 146t-141 374q0 143 55 265.5t163 217.5q-56 16 -121.5 25t-137.5 9q-73 0 -138 -9 t-121 -25q106 -96 162 -219t56 -269q0 -220 -139 -367.5t-358 -147.5t-360.5 145.5t-141.5 372.5q0 140 51 258t151 212q-63 13 -122 17.5t-115 4.5h-35q-17 0 -34 -1v256q17 0 36 1h37q117 0 250 -20t274 -74q147 65 284.5 93.5t262.5 28.5q132 0 271 -30t274 -92zM759 971 q-244 -125 -244 -369q0 -121 65 -193t177 -72q114 0 180 69t66 196q0 242 -244 369zM1840 971q-244 -125 -244 -369q0 -120 64.5 -192.5t177.5 -72.5q114 0 180 69t66 196q0 242 -244 369z" />
<glyph unicode="&#x2934;" d="M1412 549q-102 -184 -244 -279.5t-320 -95.5q-62 0 -114.5 10t-84.5 21v405q35 -19 84.5 -33t94.5 -14q77 0 145.5 44t109.5 120l89 162l-453 247l958 289l274 -961l-452 246z" />
<glyph unicode="&#x2935;" d="M1488 707h513l-700 -711l-701 711h515v185q0 96 -49.5 172.5t-129 107.5t-146.5 31l192 356q222 -43 364 -213t142 -455v-184z" />
<glyph unicode="&#x2b05;" d="M1329 1376v-406h818v-479h-818v-402l-877 643z" />
<glyph unicode="&#x2b06;" d="M1943 702h-406v-818h-479v818h-402l643 877z" />
<glyph unicode="&#x2b07;" d="M1299 -115l-643 877h402v818h479v-818h406z" />
<glyph unicode="&#x2b1b;" d="M2426 1924q24 0 40 -16t16 -40v-2255q0 -23 -16 -38.5t-40 -15.5h-2255q-23 0 -38.5 15.5t-15.5 38.5v2255q0 24 15.5 40t38.5 16h2255z" />
<glyph unicode="&#x2b1c;" d="M2426 1925q23 0 39.5 -16t16.5 -40v-2255q0 -23 -16.5 -38.5t-39.5 -15.5h-2255q-23 0 -38.5 15.5t-15.5 38.5v2255q0 24 15.5 40t38.5 16h2255zM2344 1787h-2090v-2090h2090v2090z" />
<glyph unicode="&#x2b50;" d="M2181 989v-7q0 -19 -15 -36l-444 -368l140 -569l1 -11q0 -17 -14 -31t-31 -14q-14 0 -25 8l-492 311l-493 -311q-11 -8 -24 -8q-18 0 -32 13.5t-14 31.5q0 7 2 11l139 569l-443 368q-17 15 -17 36q0 19 12.5 30.5t30.5 14.5l579 47l218 531q11 29 42 29q14 0 25 -7.5 t16 -21.5l220 -531l579 -47q18 -3 29 -15t11 -23zM1851 891l-400 32l-150 366l-150 -366l-399 -32l306 -254l-96 -392l339 215l340 -215l-97 392z" />
<glyph unicode="&#x2b55;" d="M2117.5 253.5q-129.5 -220.5 -349.5 -345.5t-469 -125q-252 0 -472.5 127t-347.5 347t-127 473q0 251 126.5 471.5t347.5 348t473 127.5q250 0 470.5 -125.5t349 -346.5t128.5 -475q0 -256 -129.5 -476.5zM1983 1124q-106 183 -289 289t-395 106t-395 -105.5t-289.5 -289 t-106.5 -394.5t106.5 -395t289 -289.5t395.5 -105.5q212 0 394.5 106t289 290t106.5 394q0 211 -106 394z" />
<glyph unicode="&#x3030;" d="M2377 607q-98 -69 -179.5 -97t-150.5 -28q-104 0 -199 61.5t-170 93.5t-148 32q-151 0 -280.5 -77.5t-228.5 -77.5q-92 0 -226 79.5t-236 79.5q-54 0 -108.5 -19t-123.5 -64l-104 222q81 81 169.5 123t180.5 42q88 0 166 -37t151.5 -80.5t132.5 -43.5q83 0 220.5 80.5 t286.5 80.5q112 0 272.5 -100t250.5 -100q45 0 100.5 19.5t131.5 69.5z" />
<glyph unicode="&#x303d;" d="M2177 63l-270 -278q-6 -6 -14 -6q-25 0 -168 165.5t-243 388.5t-138 467q-16 98 -23 186l-177 -207q-23 -26 -54 -40t-65 -14q-56 0 -98.5 34t-55.5 88l-82 347l-172 -165q-4 -2 -6 -4t-7 -2q-10 0 -16 7l-169 219q-4 8 -4 13q0 7 6 13l334 314q30 28 65 45t69 17 q55 0 88.5 -36t48.5 -96l80 -303l244 268q74 83 147 83q67 0 103.5 -48t36.5 -130v-92q0 -272 63 -481t182 -389.5t294 -336.5q8 -4 8 -13q0 -7 -7 -14z" />
<glyph unicode="&#x3297;" d="M2228 195.5q-144 -249.5 -393.5 -393.5t-535.5 -144q-288 0 -539.5 147t-392 395.5t-140.5 530.5t140.5 530.5t392 395.5t539.5 147q286 0 535.5 -144t393.5 -393.5t144 -535.5t-144 -535.5zM2159.5 1228.5q-133.5 230.5 -364.5 363t-496 132.5q-262 0 -491 -130.5 t-365.5 -361.5t-136.5 -501q0 -266 133.5 -496.5t363.5 -364.5t496 -134t496.5 133.5t364 364.5t133.5 497q0 267 -133.5 497.5zM1945 276q11 0 18.5 -7t7.5 -18v-157q0 -20 -18 -24.5t-61 -4.5q-103 0 -176.5 53t-102 209.5t-31.5 341.5h-46q-5 -191 -60 -354t-128 -261 q-7 -9 -19 -9q-5 0 -11 2l-147 77q-6 3 -9.5 9.5t-3.5 12.5q0 9 7 15q70 105 111 228.5t47 279.5h-86q-11 0 -17.5 7t-6.5 18v614q0 10 6.5 17t17.5 7h662q11 0 18 -7t7 -17v-614q0 -11 -7 -18t-18 -7h-104q0 -66 7 -118l12 -121q10 -104 33.5 -129.5t74.5 -25.5q9 0 14 1h9 zM1697 871q10 0 10 8v242q0 10 -10 10h-258q-10 0 -10 -10v-242q0 -8 10 -8h258zM1229 657q3 -3 4 -7.5t1 -8.5q0 -12 -6 -18l-106 -106q-6 -8 -16 -8q-12 0 -18 8l-69 69v-488q0 -11 -7 -18t-17 -7h-195q-9 0 -17 7t-8 18v529l-102 -100q-6 -6 -18 -6q-10 0 -17 7l-120 126 q-7 7 -7 14q0 6 1 11.5t6 10.5l308 293h-226q-9 0 -16 7t-7 18v175q0 9 7 17t16 8h175v159q0 10 8 17t17 7h195q10 0 17 -7t7 -17v-159h121q11 0 18.5 -8t7.5 -17v-175q0 -12 -8 -18l-132 -125z" />
<glyph unicode="&#x3299;" d="M2228 195.5q-144 -249.5 -393.5 -393.5t-535.5 -144q-288 0 -539.5 147t-392 395.5t-140.5 530.5t140.5 530.5t392 395.5t539.5 147q286 0 535.5 -144t393.5 -393.5t144 -535.5t-144 -535.5zM2159.5 1228.5q-133.5 230.5 -364.5 363t-496 132.5q-262 0 -491 -130.5 t-365.5 -361.5t-136.5 -501q0 -266 133.5 -496.5t363.5 -364.5t496 -134t496.5 133.5t364 364.5t133.5 497q0 267 -133.5 497.5zM1240 483q0 -4 1 -10q0 -7 -3 -13.5t-9 -9.5l-101 -51q-3 0 -11 -1q-16 0 -22 14l-33 72v-394q0 -11 -7 -18t-18 -7h-160q-11 0 -18 7t-7 18 v375l-96 -196q-3 -8 -10.5 -10.5t-12.5 -2.5q-7 0 -10 2l-135 66q-14 7 -14 22q0 7 3 11l225 459h-154q-11 0 -18 7t-7 18v145q0 11 7 18.5t18 7.5h204v72l-127 -39q-3 -2 -8 -2q-17 0 -24 17l-48 155q0 2 -1 6q0 17 18 24l466 146q2 0 4 1t4 1q9 0 14.5 -6t8.5 -12l48 -154 l1 -8q0 -19 -17 -22l-129 -41v-138h142q11 0 18 -7.5t7 -18.5v-145q0 -11 -7 -18t-18 -7h-118zM1984 343q11 -6 11 -18l-2 -6l-3 -15q-16 -66 -73.5 -126.5t-146.5 -68.5l-27 -2q-13 0 -26 -1q-74 0 -129 31t-86 86q-42 -45 -97.5 -90.5t-70.5 -45.5q-9 0 -19 8l-109 124 q-6 6 -6 16q0 17 26 31t88.5 71.5t122.5 142.5q-15 91 -31 227t-32 330q0 10 5.5 17t16.5 9l162 13q26 0 27.5 -24.5t10.5 -94.5l10 -85q11 53 22.5 122t22.5 160q0 10 8.5 16t16.5 6q4 0 6 -1l157 -44q9 -3 13 -10.5t4 -15.5q-10 -120 -36.5 -241.5t-50.5 -191.5l-15 -44 q-21 -57 -45 -105t-50 -92q8 -59 26.5 -87t65.5 -28q36 0 53 28t22.5 54.5t27.5 26.5q8 0 13 -4zM1332 1237q-5 4 -9.5 9t-4.5 11q0 3 1 7t3 7l60 111q3 6 9.5 9.5t12.5 3.5q7 0 11 -2l209 -114q13 -7 13 -23q0 -8 -3 -11l-60 -111q-3 -6 -9.5 -10t-12.5 -4t-12 3zM2029 512 v-6q0 -6 -5 -13t-14 -9l-126 -22q-10 0 -18 5t-10 16l-39 234q0 11 4.5 19t15.5 10l125 21q25 0 29 -21zM1215 768q0 11 7 18t18 7h127q10 0 17 -7t7 -18v-190q0 -11 -7 -18t-17 -7h-127q-11 0 -18 7t-7 18v190z" />
<glyph unicode="&#xfeff;" />
<glyph unicode="&#x1f004;" d="M2143 1462q51 -23 81.5 -68.5t30.5 -106.5v-436q0 -80 -3.5 -125.5t-39.5 -90.5l-678 -910q-32 -46 -93.5 -75t-121.5 -29q-59 0 -108 25l-752 356q-53 25 -83.5 70t-30.5 102v539q0 30 10.5 60t30.5 56l681 910q36 48 94.5 76t122.5 28q58 0 106 -23zM510 642l752 -358 q12 -6 27 -8.5t30 -2.5q36 0 68.5 15t52.5 41l681 910q19 26 19 53q0 22 -12.5 37t-35.5 26l-751 358q-27 12 -57 12q-38 0 -70 -15t-51 -41l-682 -910q-11 -14 -14.5 -25t-3.5 -24q0 -23 12.5 -40.5t34.5 -27.5zM2138 1064l-604 -806q-36 -48 -90.5 -76t-120.5 -28 q-29 0 -58 6t-54 19l-748 354v-226q0 -21 12.5 -38t34.5 -27l752 -358q12 -6 27 -9t30 -3q36 0 68.5 15t52.5 41l678 909q11 14 15 27t4 27zM884 1031q-9 3 -9 13q0 2 1 5l2 4l234 316q4 6 11 6q4 0 7 -2l243 -116l164 215q4 5 11 5q4 0 7 -1l149 -71q2 -2 4.5 -6t2.5 -8 q0 -5 -3 -8l-160 -210l234 -112l5 -5q2 -3 2 -8t-3 -8l-233 -318q-3 -5 -12 -5q-4 0 -5 1l-246 118l-187 -245q-6 -6 -11 -6q-2 0 -3 1t-3 1l-149 71q-3 2 -6.5 5.5t-3.5 8.5q0 3 1 5l187 243zM1472 900q3 -2 5 -2t3 2l80 106q2 0 2 5t-4 7l-94 44l-89 -116zM1199 1031 l89 116l-96 46q-2 0 -3 1q-2 0 -3 -1l-4 -3l-77 -103l-1 -3q0 -2 -1 -4q0 -6 7 -7z" />
<glyph unicode="&#x1f0cf;" d="M1986 1874q66 0 116.5 -48.5t50.5 -118.5v-1945q0 -69 -49.5 -117.5t-117.5 -48.5h-1372q-68 0 -117.5 48.5t-49.5 117.5v1945q0 69 50 118t117 49h1372zM2038 1707q0 21 -15.5 36.5t-36.5 15.5h-1372q-21 0 -36.5 -15.5t-15.5 -36.5v-1945q0 -20 15.5 -35.5t36.5 -15.5 h1372q21 0 36.5 15.5t15.5 35.5v1945zM1750.5 84q-18.5 -19 -44.5 -19q-27 0 -46.5 19t-19.5 46q0 8 2 15t5 14q-99 37 -137.5 117.5t-81.5 118.5q-14 -38 -20 -78t-6 -91q0 -53 -25.5 -103.5t-69.5 -86.5q14 -17 14 -38q0 -26 -19.5 -45.5t-45.5 -19.5q-27 0 -46.5 19.5 t-19.5 45.5t19 44.5t45 19.5q0 28 -6.5 50t-16.5 45l-22 48q-14 29 -25 72t-11 82v13q0 6 1 12q-49 -34 -90 -121t-141 -124q4 -8 4 -21q0 -27 -19 -46t-46 -19q-26 0 -45 19t-19 46t19 46t45 19q12 0 24 -5q30 38 36 124t46 148q-17 -11 -58.5 -41t-107.5 -30 q-18 0 -32.5 2.5t-26.5 5.5q-9 -13 -23.5 -21t-31.5 -8q-27 0 -46 19t-19 46t19 46t46 19q26 0 44.5 -17.5t20.5 -43.5q18 8 30.5 22.5t24.5 32.5l23 36q18 28 45.5 50.5t78.5 37.5q-15 42 -19 77t-4 78q0 77 14.5 138.5t43.5 134.5t48.5 109t19.5 68q0 35 -18.5 57 t-53.5 22q-29 0 -57.5 -21t-47.5 -46q25 -23 25 -58q0 -32 -22.5 -54.5t-54.5 -22.5q-33 0 -56 22.5t-23 54.5t22.5 55t54.5 24q22 121 82 183.5t156 62.5q58 0 107 -30.5t82 -81.5q42 102 120.5 154.5t187.5 52.5q20 0 36.5 -1.5t28.5 -3.5q10 18 28 29.5t40 11.5 q32 0 55 -23t23 -56q0 -32 -23 -55.5t-55 -23.5q-24 0 -43.5 13.5t-28.5 34.5q-66 -30 -102 -95.5t-44 -157.5q14 6 47.5 14t73.5 8q95 0 167 -62.5t72 -159.5q0 -38 -9 -74t-17 -57q14 -11 22.5 -27t8.5 -35q0 -32 -23 -55.5t-56 -23.5q-32 0 -54.5 23.5t-22.5 55.5 q0 30 19.5 52t49.5 25q0 5 1 18q0 42 -31 74.5t-60 32.5q-32 0 -51 -38t-19 -102q0 -17 3 -38l13 -91q3 -23 3 -42q0 -39 -5.5 -70.5t-13.5 -54.5q61 -4 117 -58t106 -61q4 23 21.5 39t42.5 16q26 0 45.5 -19.5t19.5 -46.5q0 -26 -19.5 -45.5t-45.5 -19.5t-45 19 q-18 -12 -41 -22t-49 -10q-41 0 -92 28.5t-85 35.5q22 -31 36 -64.5t18 -65.5l7 -60q3 -30 10.5 -56.5t26.5 -47.5l9 2h9q26 0 44.5 -19t18.5 -46t-18.5 -46zM1117.5 535.5q79.5 -69.5 172.5 -69.5q103 0 180.5 81.5t77.5 210.5q0 99 -38 158.5t-85 59.5q-34 0 -68 -20 t-67 -76q-14 42 -47 76t-72 34q-58 0 -95.5 -74t-37.5 -151q0 -160 79.5 -229.5zM1182 747q-23 2 -40.5 16t-17.5 42q0 31 18.5 49t45.5 18q37 0 60.5 -33t23.5 -74q0 -30 -10.5 -51t-10.5 -36q0 -18 20 -18q16 0 27 8t25 8q5 0 5 -6q0 -24 -76 -58q0 -5 15.5 -9t27.5 -4 q33 0 61.5 15t47.5 31l10 8q5 3 12 3q5 0 9.5 -3t4.5 -16q0 -45 -49 -75t-90 -30q-52 0 -103 35t-51 79q0 5 1.5 8.5t4.5 3.5q6 0 11 -6.5t11 -6.5q4 0 5 2t20 39l14 30q4 11 4 20t-7 9zM1354.5 849q23.5 22 55.5 22q20 0 28 -13.5t8 -30.5q0 -32 -20.5 -51.5t-46.5 -19.5 q-23 0 -35.5 12.5t-12.5 30.5q0 28 23.5 50zM650 1544.5q14 14.5 37 14.5t36.5 -14.5t13.5 -34.5q0 -21 -13.5 -35.5t-36.5 -14.5t-37 14.5t-14 35.5q0 20 14 34.5zM647 1233q0 2 3 2h40q14 0 23.5 -9t9.5 -23q0 -22 -20 -30l23 -30v-2l-2 -1h-18q-3 0 -4 1l-23 29h-8v-28 q0 -2 -2 -2h-19q-3 0 -3 2v91zM670 1449q2 0 2 -2v-35l24 36l4 1h20q2 0 2 -1v-2l-27 -40l31 -49q0 -3 -4 -3h-18q-4 0 -5 3l-27 43v-44q0 -2 -2 -2h-20q-2 0 -2 2v91q0 2 2 2h20zM677 1323v-18h32q2 0 2 -2v-15q0 -2 -2 -2h-32v-20h42q2 0 2 -2v-16q0 -2 -2 -2h-64 q-2 0 -2 2v93q0 2 2 2h64q2 0 2 -2v-16q0 -2 -2 -2h-42zM648 1597q0 2 5 3l15 5q2 0 6 -6t11 -6q10 0 12 6.5t2 18.5v47q0 2 2 2h22q3 0 3 -2v-49q0 -46 -40 -46q-15 0 -25.5 7.5t-12.5 19.5zM668 1491.5q7 -7.5 19 -7.5t19 7.5t7 18.5t-7 18t-19 7t-19 -7t-7 -18t7 -18.5z M671 1189h17q5 0 9 3.5t4 10.5q0 6 -4 9.5t-9 3.5h-17v-27zM1964 -73.5q-14 -14.5 -37 -14.5t-36.5 14.5t-13.5 34.5q0 21 13.5 35.5t36.5 14.5t37 -14.5t14 -35.5q0 -20 -14 -34.5zM1967 238q0 -2 -3 -2h-40q-14 0 -23.5 9t-9.5 23q0 22 20 30l-23 30v2l2 1h18q3 0 4 -1 l23 -29h8v28q0 2 2 2h19q3 0 3 -2v-91zM1944 22q-2 0 -2 2v35l-24 -36l-4 -1h-20q-2 0 -2 1v2l27 40l-31 49q0 3 4 3h18q3 0 5 -3l27 -43v44q0 2 2 2h20q2 0 2 -2v-91q0 -2 -2 -2h-20zM1937 148v18h-32q-2 0 -2 2v15q0 2 2 2h32v20h-42q-2 0 -2 2v16q0 2 2 2h64q2 0 2 -2 v-93q0 -2 -2 -2h-64q-2 0 -2 2v16q0 2 2 2h42zM1966 -126q0 -2 -5 -3l-15 -5q-2 0 -6 6t-11 6q-10 0 -12 -6.5t-2 -18.5v-47q0 -2 -2 -2h-22q-3 0 -3 2v49q0 46 40 46q15 0 25.5 -7.5t12.5 -19.5zM1946 -20.5q-7 7.5 -19 7.5t-19 -7.5t-7 -18.5t7 -18t19 -7t19 7t7 18 t-7 18.5zM1943 282h-17q-5 0 -9 -3.5t-4 -10.5q0 -6 4 -9.5t9 -3.5h17v27z" />
<glyph unicode="&#x1f170;" d="M2222 1769q46 0 79 -33t33 -79v-1845q0 -45 -33.5 -78t-78.5 -33h-1845q-45 0 -78 33t-33 78v1845q0 45 33 78.5t78 33.5h1845zM2026 -39q13 0 23 8.5t10 22.5q0 7 -3 13l-553 1474q-9 22 -32 22h-345q-9 0 -18 -5.5t-12 -16.5l-557 -1480q0 -3 -1 -5q0 -14 10.5 -23.5 t24.5 -9.5h363q10 0 19 6.5t12 15.5l85 253h496l84 -253q3 -9 11.5 -15.5t19.5 -6.5h363zM1299 983l145 -434h-289z" />
<glyph unicode="&#x1f171;" d="M2222 1769q47 0 79.5 -33t32.5 -78v-1845q0 -45 -32.5 -78t-79.5 -33h-1845q-47 0 -79 33t-32 78v1845q0 45 32 78t79 33h1845zM1422 -42q202 0 347.5 130t145.5 314q0 108 -54 202.5t-151 157.5q63 60 99 138.5t36 167.5q0 182 -145 313.5t-348 131.5h-559 q-14 0 -23.5 -9.5t-9.5 -23.5v-1489q0 -14 9.5 -23.5t23.5 -9.5h629zM1341 609q66 0 116.5 -54t50.5 -128q0 -76 -50 -129.5t-117 -53.5h-218q-7 0 -7 9v348q0 8 7 8h218zM1122 901q-3 0 -5 2t-2 4v300q0 2 2 5.5t5 3.5h207q62 0 105.5 -47.5t43.5 -110.5 q0 -62 -43.5 -109.5t-105.5 -47.5h-207z" />
<glyph unicode="&#x1f17e;" d="M2222 1770q46 0 79 -33t33 -79v-1845q0 -45 -33.5 -78t-78.5 -33h-1845q-45 0 -78 33t-33 78v1845q0 45 33 78.5t78 33.5h1845zM2027.5 1153.5q-108.5 187.5 -300.5 291t-428 103.5q-235 0 -427.5 -104t-300.5 -291t-108 -417q0 -227 107 -415t300 -292.5t429 -104.5 t428.5 104t300.5 292t108 416q0 230 -108.5 417.5zM1592 452.5q-114 -111.5 -293 -111.5q-180 0 -293 111.5t-113 283.5q0 173 113.5 284t292.5 111t293 -110.5t114 -284.5q0 -172 -114 -283.5z" />
<glyph unicode="&#x1f17f;" d="M2222 1770q45 0 78 -32.5t33 -79.5v-1845q0 -47 -33 -79t-78 -32h-1845q-45 0 -78 32t-33 79v1845q0 47 33 79.5t78 32.5h1845zM1423 1511h-660q-14 0 -23.5 -9.5t-9.5 -22.5v-1490q0 -13 9.5 -23t23.5 -10h322q14 0 24 10t10 23v474h304q219 0 375 155t156 370 q0 214 -156 368.5t-375 154.5zM1382 1205q84 0 146.5 -64.5t62.5 -152.5t-61.5 -152t-147.5 -64h-257q-2 0 -6 2.5t-4 5.5v416q0 2 4 5.5t6 3.5h257z" />
<glyph unicode="&#x1f18e;" d="M2222 1770q47 0 79 -32t32 -79v-1845q0 -47 -32 -79t-79 -32h-1845q-47 0 -79 32t-32 79v1845q0 47 32 79t79 32h1845zM2011 762q42 60 65 138.5t23 169.5q0 180 -88.5 308.5t-211.5 128.5h-333q-11 0 -18 -7.5t-7 -18.5v-1489q0 -11 7 -18.5t18 -7.5h375 q122 0 211 128.5t89 309.5q0 112 -35.5 205.5t-94.5 152.5zM1018 1480q-2 8 -9.5 14t-16.5 6h-204q-10 0 -17 -6t-9 -14l-330 -1481q0 -13 8 -19t18 -6h216q20 0 25 21l50 254h283l49 -254q2 -10 9.5 -15.5t15.5 -5.5h217q8 0 16 6t8 19v5zM1793 608q41 0 70.5 -50.5 t29.5 -129.5t-29.5 -129.5t-70.5 -50.5h-130q-5 0 -5 6v349q0 5 5 5h130zM1663 904q-7 0 -7 6v300q0 5 7 5h122q36 0 63.5 -45t27.5 -111q0 -65 -27.5 -110t-63.5 -45h-122zM891 962l82 -414h-165z" />
<glyph unicode="&#x1f191;" d="M2222 1770q45 0 78 -32.5t33 -79.5v-1845q0 -47 -33 -79t-78 -32h-1845q-45 0 -78 33t-33 78v1845q0 45 33 78.5t78 33.5h1845zM2255 1658q0 14 -9.5 23.5t-23.5 9.5h-1845q-14 0 -23.5 -9.5t-9.5 -23.5v-1845q0 -14 9.5 -23t23.5 -9h1845q14 0 23.5 9t9.5 23v1845z M1336 161v-5v-4t-3 -4q-142 -198 -347 -198q-221 0 -363.5 221.5t-142.5 574.5q0 351 142.5 572.5t363.5 221.5q98 0 172 -34.5t120.5 -83t46.5 -56.5q-2 -3 -2 -4l-112 -334q-5 -10 -15 -10q-9 0 -22.5 21t-67 54t-120.5 33q-100 0 -167.5 -107t-67.5 -273q0 -167 67 -275 t168 -108q61 0 125 41.5t81.5 66.5t30.5 25q9 0 11 -9zM2077 274q11 0 18.5 -7t7.5 -17v-246q0 -10 -7.5 -18t-18.5 -8h-627q-11 0 -19 8t-8 18v1481q0 11 8 18.5t19 7.5h197q10 0 18 -7.5t8 -18.5v-1211h404z" />
<glyph unicode="&#x1f192;" d="M2222 1770q45 0 78 -32t33 -79v-1845q0 -47 -33 -79.5t-78 -32.5h-1845q-45 0 -78 33.5t-33 78.5v1845q0 45 33 78t78 33h1845zM2255 1659q0 14 -9.5 23.5t-23.5 9.5h-1845q-14 0 -23.5 -9.5t-9.5 -23.5v-1845q0 -14 9.5 -23.5t23.5 -9.5h1845q14 0 23.5 9.5t9.5 23.5 v1845zM1242.5 235.5q-56.5 -196.5 -143.5 -196.5t-143.5 196.5t-56.5 500.5q0 303 56.5 501t143.5 198t143.5 -198t56.5 -501q0 -304 -56.5 -500.5zM1685 236.5q-56 -197.5 -144 -197.5q-87 0 -142.5 198t-55.5 499t55.5 500t142.5 199q88 0 144 -198.5t56 -500.5 t-56 -499.5zM841 522q6 -2 8 -8l54 -288v-4q-76 -176 -188 -176q-118 0 -194.5 194.5t-76.5 503.5q0 308 76 503.5t195 195.5q56 0 100.5 -37.5t80.5 -109.5v-7l-59 -293q-2 -8 -8 -8q-11 0 -16 17.5t-36 61.5t-60 44q-49 0 -81.5 -102.5t-32.5 -264.5q0 -160 32.5 -263.5 t81.5 -103.5q27 0 66 56t43.5 72.5t14.5 16.5zM2136 315q18 0 18 -16v-222q0 -8 -5 -13t-13 -5h-333q-8 0 -13 5t-5 13v1336q0 7 5 11.5t13 4.5h105q17 0 17 -16v-1098h211zM1145 1024.5q-18 111.5 -46 111.5q-27 0 -46 -109.5t-19 -290.5t19 -290.5t46 -109.5q28 0 46 113 t18 287q0 177 -18 288.5zM1588 1024.5q-18 111.5 -47 111.5q-27 0 -45 -111.5t-18 -288.5t18 -288.5t45 -111.5q29 0 47 111.5t18 288.5t-18 288.5z" />
<glyph unicode="&#x1f193;" d="M2222 1770q45 0 78 -32.5t33 -79.5v-1845q0 -47 -33 -79t-78 -32h-1845q-45 0 -78 33t-33 78v1845q0 45 33 78.5t78 33.5h1845zM2255 1658q0 14 -9.5 23.5t-23.5 9.5h-1845q-14 0 -23.5 -9.5t-9.5 -23.5v-1845q0 -14 9.5 -23t23.5 -9h1845q14 0 23.5 9t9.5 23v1845z M1303 26v-4q0 -8 -5 -14t-14 -6h-107q-8 0 -13 3.5t-6 11.5l-124 468h-24v-464q0 -18 -19 -18h-107q-19 0 -19 18v1419q0 19 19 19h219q81 0 132 -144.5t51 -342.5q0 -154 -31.5 -277.5t-80.5 -174.5zM1715 1459q8 0 13.5 -5.5t5.5 -13.5v-235q0 -8 -5.5 -13t-13.5 -5h-215 v-304h163q8 0 13.5 -5.5t5.5 -12.5v-236q0 -19 -19 -19h-163v-336h215q8 0 13.5 -5t5.5 -13v-235q0 -8 -5.5 -13.5t-13.5 -5.5h-342q-8 0 -13 5.5t-5 13.5v1419q0 8 5 13.5t13 5.5h342zM2147 1459q7 0 12.5 -5.5t5.5 -13.5v-235q0 -8 -5.5 -13t-12.5 -5h-217v-304h165 q8 0 13.5 -5.5t5.5 -12.5v-236q0 -19 -19 -19h-165v-336h217q7 0 12.5 -5t5.5 -13v-235q0 -8 -5.5 -13.5t-12.5 -5.5h-341q-19 0 -19 19v1419q0 19 19 19h341zM793 1459q8 0 13 -5.5t5 -13.5v-235q0 -8 -5 -13t-13 -5h-198v-319h164q8 0 13 -6t5 -14v-235q0 -8 -5 -13 t-13 -5h-164v-574q0 -8 -6 -13.5t-14 -5.5h-106q-8 0 -13 5.5t-5 13.5v1419q0 8 5 13.5t13 5.5h324zM1089 769q30 0 50.5 59t20.5 144q0 86 -20.5 145t-50.5 59h-85q-5 0 -5 -6v-396q0 -5 5 -5h85z" />
<glyph unicode="&#x1f194;" d="M2222 1770q45 0 78 -32.5t33 -79.5v-1845q0 -47 -33 -79t-78 -32h-1845q-45 0 -78 33t-33 78v1845q0 45 33 78.5t78 33.5h1845zM2255 1658q0 14 -9.5 24t-23.5 10h-1845q-14 0 -23.5 -10t-9.5 -24v-1845q0 -13 9.5 -22.5t23.5 -9.5h1845q14 0 23.5 9.5t9.5 22.5v1845z M1515 1498q261 0 437 -203.5t176 -559.5t-176 -560.5t-437 -204.5h-527q-13 0 -21 9t-8 21v1469q0 11 8 20t21 9h527zM1500 329l23 1q62 2 130.5 45.5t111.5 136.5t43 223q0 185 -88.5 294.5t-219.5 109.5h-192q-11 0 -19.5 -9t-8.5 -20v-752q0 -11 8.5 -20t19.5 -9h192z M819 1498q13 0 22.5 -9t9.5 -21v-1481q0 -14 -9.5 -23t-22.5 -9h-297q-14 0 -22.5 9t-8.5 23v1481q0 12 8.5 21t22.5 9h297z" />
<glyph unicode="&#x1f195;" d="M2222 1770q45 0 78 -32.5t33 -79.5v-1845q0 -47 -32 -79t-79 -32h-1845q-47 0 -79 33t-32 78v1845q0 45 33 78.5t78 33.5h1845zM2255 1658q0 14 -9.5 23.5t-23.5 9.5h-1845q-14 0 -23.5 -9.5t-9.5 -23.5v-1845q0 -14 9.5 -23.5t23.5 -9.5h1845q14 0 23.5 9.5t9.5 23.5 v1845zM1432 1459q8 0 14 -5.5t6 -13.5v-237q0 -7 -6 -12.5t-14 -5.5h-237v-304h181q8 0 13.5 -5.5t5.5 -13.5v-236q0 -9 -5.5 -14.5t-13.5 -5.5h-181v-336h237q8 0 14 -5.5t6 -13.5v-236q0 -8 -6 -13.5t-14 -5.5h-374q-8 0 -14.5 5.5t-6.5 13.5v1425q0 8 6.5 13.5t14.5 5.5 h374zM960 1461q8 0 14.5 -6.5t6.5 -14.5v-1425q0 -8 -6.5 -14t-14.5 -6h-117q-16 0 -20 16l-202 835v-831q0 -8 -6.5 -14t-15.5 -6h-117q-8 0 -14 6t-6 14v1425q0 8 6 14.5t14 6.5h117q8 0 13.5 -4.5t6.5 -10.5l203 -836v830q0 8 6.5 14.5t14.5 6.5h117zM2143 1453 q9 0 14.5 -6.5t5.5 -15.5l-126 -1410q0 -9 -6.5 -14t-13.5 -5h-102q-19 0 -19 19l-67 705l-64 -705q0 -3 -4.5 -11t-16.5 -8h-101q-19 8 -19 19l-127 1410q0 8 4.5 15t15.5 7h126q8 0 14 -5t6 -13l43 -589l59 589q0 7 5.5 12.5t13.5 5.5h92q7 0 13.5 -4t6.5 -14l59 -589 l41 589q3 18 21 18h126z" />
<glyph unicode="&#x1f196;" d="M2222 1770q46 0 78.5 -32t32.5 -80v-1845q0 -47 -33 -79t-78 -32h-1845q-45 0 -78 33t-33 78v1845q0 46 32.5 79t78.5 33h1845zM2255 1658q0 14 -9.5 24t-23.5 10h-1845q-14 0 -23.5 -10t-9.5 -24v-1845q0 -13 9.5 -22.5t23.5 -9.5h1845q14 0 23.5 9.5t9.5 22.5v1845z M2144 800q5 0 9.5 -3.5t4.5 -8.5q0 -366 -105.5 -595.5t-308.5 -229.5q-198 0 -324.5 213t-126.5 549q0 337 126.5 550t324.5 213q95 0 176 -52t142 -152l1 -7l-1 -5l-126 -258q-2 -3 -4.5 -4t-5.5 -3q-11 0 -26.5 26t-65.5 64t-90 38q-91 0 -153 -121t-62 -289 q0 -165 61.5 -294t153.5 -129q60 0 111.5 62.5t57.5 160.5h-107q-14 0 -14 12v251q0 12 14 12h338zM1204 1461q11 0 18 -7t7 -18v-1419q0 -11 -7 -18.5t-18 -7.5h-175q-16 0 -23 16l-313 865v-855q0 -11 -7 -18.5t-17 -7.5h-174q-11 0 -18.5 7.5t-7.5 18.5v1419q0 11 7.5 18 t18.5 7h174q16 0 23 -17l312 -864v856q0 11 7 18t18 7h175z" />
<glyph unicode="&#x1f197;" d="M2222 1770q45 0 78 -32.5t33 -79.5v-1845q0 -47 -33 -79t-78 -32h-1845q-45 0 -78 33t-33 78v1845q0 45 33 78.5t78 33.5h1845zM2255 1658q0 14 -9.5 23.5t-23.5 9.5h-1845q-14 0 -23.5 -9.5t-9.5 -23.5v-1845q0 -14 9.5 -23.5t23.5 -9.5h1845q14 0 23.5 9.5t9.5 23.5 v1845zM2161 43q0 -3 1 -8q0 -11 -7 -18.5t-18 -7.5h-205q-19 0 -24 16l-248 653v-645q0 -9 -6.5 -16.5t-17.5 -7.5h-184q-10 0 -17 7.5t-7 16.5v1407q0 11 7 18t17 7h184q11 0 17.5 -7t6.5 -18v-527l216 537q7 15 23 15h205q11 0 18 -7t7 -18q0 -5 -1 -8l-255 -633z M1245 208q-131 -215 -338 -215q-206 0 -336.5 213.5t-130.5 539.5q0 323 130.5 536.5t336.5 213.5q207 0 338 -214.5t131 -535.5q0 -323 -131 -538zM1047.5 1053q-54.5 121 -140.5 121q-85 0 -140 -120.5t-55 -307.5q0 -189 55 -310.5t140 -121.5q86 0 140.5 122t54.5 310 q0 186 -54.5 307z" />
<glyph unicode="&#x1f198;" d="M2222 1770q46 0 78.5 -32t32.5 -80v-1845q0 -47 -33 -79t-78 -32h-1845q-45 0 -78 33t-33 78v1845q0 46 32.5 79t78.5 33h1845zM2255 1658q0 14 -9.5 24t-23.5 10h-1845q-14 0 -23.5 -10t-9.5 -24v-1845q0 -13 9.5 -22.5t23.5 -9.5h1845q14 0 23.5 9.5t9.5 22.5v1845z M1545 207q-91 -209 -232 -209q-143 0 -234 209t-91 532q0 322 91.5 531t233.5 209q140 0 231.5 -209t91.5 -531q0 -323 -91 -532zM1900 941l49 -50q104 -106 151.5 -216t47.5 -258q0 -187 -72 -311t-181 -124q-67 0 -120 44.5t-94 117t-41 80.5q0 4 1 6l67 232q5 11 14 11 q13 0 27.5 -31.5t63 -90.5t91.5 -59l11 2q17 4 32.5 33t15.5 83q0 107 -67.5 176.5t-130.5 141t-88 153t-25 187.5q0 158 53 292t183 134q75 0 139 -53t64 -72v-4l-43 -221q-2 -12 -15 -12q-6 0 -51.5 44t-85.5 44q-28 0 -46 -29.5t-18 -88.5q0 -47 13.5 -81.5t33.5 -56.5z M783 892q115 -123 158 -234t43 -241q0 -184 -72 -309.5t-182 -125.5q-72 0 -133 55.5t-120 182.5q-2 0 -2 4t2 6l68 232q3 11 13 11q12 0 26.5 -31.5t63 -90.5t92.5 -59l11 2q18 4 33.5 33t15.5 84q0 42 -14 86.5t-42 74.5l-55 59h-1q-102 109 -133 156t-49 114.5t-18 166.5 q0 155 52 290.5t183 135.5q67 0 136 -50t69 -79l-46 -221q-2 -12 -13 -12q-5 0 -51 44t-86 44q-28 0 -46.5 -29.5t-18.5 -88.5q0 -43 15.5 -83t53.5 -78zM1404 1039.5q-36 119.5 -91 119.5q-57 0 -93 -119.5t-36 -300.5q0 -183 36 -303.5t93 -120.5q55 0 91 120.5t36 303.5 q0 181 -36 300.5z" />
<glyph unicode="&#x1f199;" d="M2222 1770q45 0 78 -32t33 -79v-1845q0 -47 -33 -79.5t-78 -32.5h-1845q-45 0 -78 33.5t-33 78.5v1845q0 45 33 78t78 33h1845zM2255 1659q0 14 -9.5 23.5t-23.5 9.5h-1845q-14 0 -23.5 -9.5t-9.5 -23.5v-1845q0 -14 9.5 -23.5t23.5 -9.5h1845q14 0 23.5 9.5t9.5 23.5 v1845zM1629 1437q115 0 196 -136t81 -333q0 -199 -81.5 -335.5t-195.5 -136.5h-151v-440q0 -9 -7 -15t-15 -6h-165q-10 0 -17 6t-7 15v1360q0 9 7 15t17 6h338zM1607 772q44 0 77 58t33 138t-33 137.5t-77 57.5h-131q-6 0 -6 -6v-379q0 -6 6 -6h131zM1184 1443q9 0 16 -6.5 t7 -15.5v-745q-6 -328 -108 -487.5t-255 -159.5q-152 0 -254.5 156t-108.5 494l-1 72v670q0 9 7 15.5t16 6.5h186q9 0 15.5 -6.5t6.5 -15.5v-670q0 -142 12.5 -215t37.5 -103.5t83 -30.5q57 0 81.5 31t37 103.5t12.5 214.5v670q0 9 6.5 15.5t15.5 6.5h187zM2108 64.5 q-25 -24.5 -60 -24.5q-36 0 -60.5 24.5t-24.5 60.5q0 35 24.5 60t60.5 25q35 0 60 -25t25 -60q0 -36 -25 -60.5zM2160 1292q-1 -6 -1 -12l-89 -982q0 -8 -7 -14t-15 -6t-14.5 6t-8.5 14l-88 982l-2 12q0 6 -1 13q0 56 33.5 95t80.5 39q45 0 79 -39t34 -95q0 -7 -1 -13z" />
<glyph unicode="&#x1f19a;" d="M2222 1770q45 0 78 -32t33 -79v-1845q0 -47 -33 -79.5t-78 -32.5h-1845q-45 0 -78 33.5t-33 78.5v1845q0 45 33 78t78 33h1845zM2255 1659q0 13 -9.5 22.5t-23.5 9.5h-1845q-14 0 -23.5 -9.5t-9.5 -22.5v-1845q0 -14 9.5 -23.5t23.5 -9.5h1845q14 0 23.5 9.5t9.5 23.5 v1845zM2023 96q-107 -129 -276 -129q-98 0 -178.5 44.5t-142 118t-61.5 84.5q0 4 2 8l103 236q4 9 18 9q5 0 57.5 -56t109.5 -91t108 -35q41 0 68 35t27 83q0 41 -20.5 84t-61.5 72l-184 129q-128 88 -168 173.5t-40 200.5q0 169 80.5 301.5t272.5 132.5q100 0 203.5 -50 t103.5 -78v-3l-68 -226q-5 -13 -18 -13q-3 0 -5 1l-5 2q-50 38 -101.5 61.5t-98.5 23.5q-43 0 -71.5 -29t-28.5 -86q0 -92 104.5 -160.5t197 -147.5t136.5 -174t44 -207q0 -185 -107 -314zM1341 1470q7 0 12 -5.5t5 -11.5v-5l-329 -1441q0 -6 -5 -10t-13 -4h-209 q-6 0 -7.5 1t-2.5 3l-2 5q0 2 -6 5l-329 1441q0 22 18 22h198q14 0 17 -13l219 -924l218 924q2 13 18 13h198z" />
<glyph unicode="&#x1f1e6;" d="M2200 -125q3 -6 3 -14q0 -17 -12 -28t-28 -11h-431q-14 0 -23.5 7.5t-13.5 19.5l-102 301h-589l-98 -301q-5 -12 -15 -19.5t-24 -7.5h-431q-16 0 -28 12t-12 27q0 8 3 14l659 1752q4 13 14 19.5t23 6.5h409q26 0 37 -26zM1471 522l-172 516l-171 -516h343z" />
<glyph unicode="&#x1f1e7;" d="M1741 777q118 -77 181.5 -190t63.5 -239q0 -216 -172 -372t-414 -156h-748q-17 0 -27.5 11t-10.5 28v1770q0 17 10.5 28.5t27.5 11.5h664q160 0 298 -74t213.5 -195.5t75.5 -259.5q0 -106 -43.5 -199t-118.5 -164zM1289 941q75 0 126.5 55.5t51.5 130.5q0 77 -52.5 132.5 t-125.5 55.5h-245q-5 0 -7.5 -3.5t-2.5 -5.5v-355q0 -5 3.5 -7.5t6.5 -2.5h245zM1304 162q81 0 139 62.5t58 152.5q0 89 -58.5 152.5t-138.5 63.5h-259q-3 0 -6 -1.5t-3 -6.5v-415q0 -8 9 -8h259z" />
<glyph unicode="&#x1f1e8;" d="M2127 46q3 -6 3 -11t-2 -9t-6 -6q-275 -236 -670 -236q-279 0 -506.5 125t-351.5 344.5t-124 484.5q0 267 125.5 487t352 344t504.5 124q203 0 361.5 -47.5t283.5 -147.5q9 -6 9 -16q0 -3 -1 -6l-2 -5l-221 -399q-3 -6 -8 -9t-10 -3q-4 0 -7 2l-6 3q-70 56 -176 90.5 t-220 34.5q-206 0 -336 -127.5t-130 -324.5q0 -195 129.5 -323t336.5 -128q107 0 228 43.5t168.5 79.5t58.5 36q13 0 19 -11z" />
<glyph unicode="&#x1f1e9;" d="M1259 1669q392 0 638 -255t246 -669q0 -415 -245.5 -670t-638.5 -255h-764q-17 0 -28 11.5t-11 28.5v1770q0 16 11 27.5t28 11.5h764zM1278 255q170 0 285 142.5t115 347.5q0 222 -121 356.5t-320 134.5h-278q-17 0 -27.5 -11t-10.5 -28v-905q0 -16 10.5 -26.5 t27.5 -10.5h319z" />
<glyph unicode="&#x1f1ea;" d="M1111 1297v-346h615q17 0 28.5 -11.5t11.5 -28.5v-293q0 -17 -11.5 -28.5t-28.5 -11.5h-615v-386h800q17 0 28.5 -11.5t11.5 -26.5v-294q0 -17 -11.5 -28t-28.5 -11h-1223q-17 0 -28.5 11t-11.5 28v1768q0 17 11.5 28t28.5 11h1223q17 0 28.5 -11t11.5 -28v-291 q0 -17 -11.5 -28.5t-28.5 -11.5h-800z" />
<glyph unicode="&#x1f1eb;" d="M1881 1667q17 0 28.5 -11t11.5 -27v-293q0 -17 -11.5 -28.5t-28.5 -11.5h-740v-294h617q16 0 27 -11.5t11 -28.5v-293q0 -17 -11 -28.5t-27 -11.5h-617v-770q0 -17 -11.5 -27.5t-26.5 -10.5h-384q-17 0 -28.5 10.5t-11.5 27.5v1770q0 16 11.5 27t28.5 11h1162z" />
</font>
</defs>
</svg>
